百度云资源论坛

 找回密码
 立即注册
搜索

[BD-4K] 毒战 Believer.2018.KOREAN.2160p.BluRay.x264.8bit.SDR.DTS-HD.MA.TrueHD.7.1.A...

[复制链接]
百度云资源 发表于 2020-9-8 13:01:06 | 显示全部楼层 |阅读模式
-->
帖子完整标题:毒战 Believer.2018.KOREAN.2160p.BluRay.x264.8bit.SDR.DTS-HD.MA.TrueHD.7.1.Atmos-SWTYBLZ 53.72GB




◎译  名 毒战/Believer/Drug War/信徒(台)/毒战寒流(港)/毒战韩国版
◎片  名 ??
◎年  代 2018
◎产  地 韩国
◎类  别 动作 / 犯罪
◎语  言 韩语
◎上映日期 2018-05-22(韩国)
◎IMDb评分  6.5/10 from 1606 users
◎国配电影  www.guopeidy.com
◎片  长 123分钟
◎导  演 李海暎 Hae-yeong Lee
◎编  剧 郑瑞景 Seo-Gyeong Jeong / 李海暎 Hae-yeong Lee
◎主  演 赵震雄 Cho Jin-woong
       柳俊烈 Jun-yeol Ryu
       金柱赫 Joo-hyuk Kim
       金成铃 Sung-ryeong Kim
       朴海俊 Hea-jun Park
       车胜元 Seung-won Cha
       郑家蓝 Ga-ram  Jung
       南文哲 Moon-cheol Nam
       徐贤宇 Seo Hyeon-woo
       姜承贤 Seung-hyun Kang
       京熙妍 Seo-yeon Jin
       金东英 Dong-yeong Kim
       李周英 Joo-young Lee
       琴赛璐 Keum Sae-rok
       郑钟宇 Jung Jong-woo
       权度云 Do-woon Kwon
       車淳亨 Soon-hyung Cha
       Tae-joon  Kim
       李智敏 Ji-min Lee
       朴成妍 Seong-yeon Park
       金在炯 Jae-heung Kim
       朴恩荣 Eun-yeong Park
       金泰俊 Tae-joon Kim
       Hyeok-seong Kwon
       姜智贤 Ji-hyun Kang
       尹锡浩 Seok-ho Yoon
       崔英民 Young-min Choi
       郑浚远 Jung Jun-won
       张泰民 Tae-min Jang

◎标  签 韩国 | 犯罪 | 韩国电影 | 翻拍 | 动作 | 2018 | 柳俊烈 | 毒战

◎简  介

  韩国最大规模贩毒组织的神秘BOSS李先生气焰嚣张,他新近通过一起爆炸案除掉了无用的干部,甚至连侥幸逃生的骨干也被害死在警局之中。缉毒组组长赵元浩(赵震雄 饰)从爆炸案现场救出在组织内担任联络工作的徐永乐(柳俊烈 饰),经过审讯得知,徐原本负责与盘踞在中国吉林的毒枭陈河霖(金柱赫 饰)接洽,因提前回国而误卷入组织清洗之中。赵组长将计就计,决定周旋在李先生和陈河霖中间上演双簧,以将贩毒组织连根拔起。这一过程险象环生,危机不断,而真正的李先生却还未显现出他真实的用心……
  
  本片翻拍自杜琪峰的同名原作。

◎获奖情况

  第39届韩国电影青龙奖 ?(2018)
  最佳男配角 金柱赫
  最佳女配角(提名) 京熙妍?/?李周英
  最佳配乐
  
  第13届亚洲电影大奖 ?(2019)
  最佳女配角(提名) 京熙妍
  最佳原创音乐(提名) 达班伦
  
  第55届百想艺术大赏 ?(2019)
  电影类最佳导演(提名) 李海暎
  电影类最佳男配角 金柱赫
  电影类最佳男配角(提名) 朴海俊
  电影类最佳女配角(提名) 京熙妍
  电影类最佳新人女演员(提名) 李周英
  电影类最佳艺术奖(提名)
  
  第55届韩国电影大钟奖 ?(2018)
  最佳男主角(提名) 赵震雄
  最佳男配角 金柱赫
  最佳女配角 京熙妍
  最佳摄影(提名)
  最佳美术(提名)
  最佳音乐(提名) 姜其永
  最佳技术奖(提名)
Video
ID                                       : 1
Format                                   : AVC
Format/Info                              : Advanced Video Codec
Format settings                          : CABAC / 5 Ref Frames
Format settings, CABAC                   : Yes
Format settings, Reference frames        : 5 frames
Codec ID                                 : V_MPEG4/ISO/AVC
Duration                                 : 2 h 3 min
Bit rate                                 : 53.8 Mb/s
Width                                    : 3 840 pixels
Height                                   : 1 612 pixels
Display aspect ratio                     : 2.40:1
Frame rate mode                          : Constant
Frame rate                               : 23.976 (24000/1001/189150) FPS
Color space                              : YUV
Chroma subsampling                       : 4:2:0
Bit depth                                : 8 bits
Scan type                                : Progressive
Bits/(Pixel*Frame)                       : 0.363
Stream size                              : 46.4 GiB (87%)
Title                                    : Believer.2018.KOREAN.2160p.BluRay.x264.8bit.SDR.DTS-HD.MA.TrueHD.7.1.Atmos-SWTYBLZ
Writing library                          : x264 core 157 r2935 545de2f
Encoding settings                        : cabac=1 / ref=5 / deblock=1:-1:-1 / analyse=0x3:0x113 / me=umh / subme=10 / psy=1 / psy_rd=1.00:0.15 / mixed_ref=1 / me_range=48 / chroma_me=1 / trellis=2 / 8x8dct=1 / cqm=0 / deadzone=21,11 / fast_pskip=1 / chroma_qp_offset=-3 / threads=36 / lookahead_threads=3 / sliced_threads=0 / nr=0 / decimate=0 / interlaced=0 / bluray_compat=0 / constrained_intra=0 / bframes=3 / b_pyramid=2 / b_adapt=2 / b_bias=0 / direct=3 / weightb=1 / open_gop=0 / weightp=2 / keyint=250 / keyint_min=23 / scenecut=40 / intra_refresh=0 / rc_lookahead=50 / rc=crf / mbtree=1 / crf=20.0 / qcomp=0.60 / qpmin=0 / qpmax=69 / qpstep=4 / ip_ratio=1.40 / aq=1:1.00
Default                                  : Yes
Forced                                   : No

Audio #1
ID                                       : 2
ID in the original source medium         : 4352 (0x1100)
Format                                   : MLP FBA 16-ch
Format/Info                              : Meridian Lossless Packing FBA with 16-channel presentation
Commercial name                          : Dolby TrueHD with Dolby Atmos
Codec ID                                 : A_TRUEHD
Duration                                 : 2 h 3 min
Bit rate mode                            : Variable
Bit rate                                 : 3 798 kb/s
Maximum bit rate                         : 6 825 kb/s
Channel(s)                               : 8 channels
Channel layout                           : L R C LFE Ls Rs Lb Rb
Sampling rate                            : 48.0 kHz
Frame rate                               : 1 200.000 FPS (40 SPF)
Compression mode                         : Lossless
Stream size                              : 3.27 GiB (6%)
Title                                    : Believer.2018.KOREAN.2160p.BluRay.x264.8bit.SDR.DTS-HD.MA.TrueHD.7.1.Atmos-SWTYBLZ
Language                                 : Korean
Default                                  : Yes
Forced                                   : No
Original source medium                   : Blu-ray
Number of dynamic objects                : 11
Bed channel count                        : 1 channel
Bed channel configuration                : LFE

Audio #2
ID                                       : 3
ID in the original source medium         : 4353 (0x1101)
Format                                   : DTS XLL X
Format/Info                              : Digital Theater Systems
Commercial name                          : DTS-HD Master Audio
Codec ID                                 : A_DTS
Duration                                 : 2 h 3 min
Bit rate mode                            : Variable
Bit rate                                 : 3 678 kb/s
Channel(s)                               : 8 channels
Channel(s)_Original                      : Object Based
ChannelLayout_Original                   : Object Based
Sampling rate                            : 48.0 kHz
Frame rate                               : 93.750 FPS (512 SPF)
Bit depth                                : 24 bits
Stream size                              : 3.17 GiB (6%)
Title                                    : Believer.2018.KOREAN.2160p.BluRay.x264.8bit.SDR.DTS-HD.MA.TrueHD.7.1.Atmos-SWTYBLZ
Language                                 : Korean
Default                                  : No
Forced                                   : No
Original source medium                   : Blu-ray

Audio #3
ID                                       : 4
ID in the original source medium         : 4352 (0x1100)
Format                                   : AC-3
Format/Info                              : Audio Coding 3
Commercial name                          : Dolby Digital
Codec ID                                 : A_AC3
Duration                                 : 2 h 3 min
Bit rate mode                            : Constant
Bit rate                                 : 640 kb/s
Channel(s)                               : 6 channels
Channel layout                           : L R C LFE Ls Rs
Sampling rate                            : 48.0 kHz
Frame rate                               : 31.250 FPS (1536 SPF)
Compression mode                         : Lossy
Stream size                              : 565 MiB (1%)
Title                                    : Believer.2018.KOREAN.2160p.BluRay.x264.8bit.SDR.DTS-HD.MA.TrueHD.7.1.Atmos-SWTYBLZ
Language                                 : Korean
Service kind                             : Complete Main
Default                                  : No
Forced                                   : No
Original source medium                   : Blu-ray

Text #1
ID                                       : 5
Format                                   : UTF-8
Codec ID                                 : S_TEXT/UTF8
Codec ID/Info                            : UTF-8 Plain Text
Duration                                 : 1 h 57 min
Bit rate                                 : 36 b/s
Count of elements                        : 1154
Stream size                              : 31.8 KiB (0%)
Title                                    : English-SRT
Language                                 : English
Default                                  : Yes
Forced                                   : No

Text #2
ID                                       : 6
ID in the original source medium         : 4768 (0x12A0)
Format                                   : PGS
Muxing mode                              : zlib
Codec ID                                 : S_HDMV/PGS
Codec ID/Info                            : Picture based subtitle format used on BDs/HD-DVDs
Duration                                 : 1 h 54 min
Bit rate                                 : 25.3 kb/s
Count of elements                        : 2270
Stream size                              : 20.7 MiB (0%)
Title                                    : Korean-PGS
Language                                 : Korean
Default                                  : No
Forced                                   : No
Original source medium                   : Blu-ray

Text #3
ID                                       : 7
ID in the original source medium         : 4769 (0x12A1)
Format                                   : PGS
Muxing mode                              : zlib
Codec ID                                 : S_HDMV/PGS
Codec ID/Info                            : Picture based subtitle format used on BDs/HD-DVDs
Duration                                 : 1 h 57 min
Bit rate                                 : 24.2 kb/s
Count of elements                        : 2310
Stream size                              : 20.3 MiB (0%)
Title                                    : English-PGS
Language                                 : English
Default                                  : No
Forced                                   : No
Original source medium                   : Blu-ray

Menu
00:00:00.000                             : en:Chapter 01
00:07:13.891                             : en:Chapter 02
00:16:30.447                             : en:Chapter 03
00:26:24.416                             : en:Chapter 04
00:38:17.336                             : en:Chapter 05
00:50:38.618                             : en:Chapter 06
01:01:25.515                             : en:Chapter 07
01:11:35.874                             : en:Chapter 08
01:25:12.190                             : en:Chapter 09
01:37:58.873                             : en:Chapter 10
01:50:57.025                             : en:Chapter 11
01:58:43.157                             : en:Chapter 12




                                                                                                                                                                                                        
                                                                                                                                                                                                                                          
4e2ce9997963bec31f4f20dfba1552c8.zip (135.89 KB, 下载次数: 0)

回复

使用道具 举报

小黑屋|百度云资源论坛 |网站地图

本网站所有资源来自网络,如无意中侵犯了您的权益,请发邮件至 [email protected],立即清除相关链接

GMT+8, 2020-9-26 19:11 , Processed in 0.117472 second(s), 23 queries .

Powered by Discuz! X3.2

© 2001-2013 Comsenz Inc.

快速回复 返回顶部 返回列表