百度云资源论坛

 找回密码
 立即注册
搜索

[BD-4K] 大熊猫/熊猫 Pandas.2018.DOCU.2160p.BluRay.x265.10bit.SDR.DTS-HD.MA.5.1-S...

[复制链接]
百度云电影 发表于 2020-9-5 09:29:54 | 显示全部楼层 |阅读模式
帖子完整标题:大熊猫/熊猫 Pandas.2018.DOCU.2160p.BluRay.x265.10bit.SDR.DTS-HD.MA.5.1-SWTYBLZ 17.63GB




◎译  名 大熊猫/熊猫/熊猫们
◎片  名 Pandas
◎年  代 2018
◎产  地 美国
◎类  别 纪录片
◎语  言 英语
◎上映日期 2018-04-06(美国) / 2020-07-25(上海国际电影节)
◎IMDb评分  7.4/10 from 474 users
◎片  长 42分钟
◎导  演 德鲁·菲尔曼 Drew Fellman
◎编  剧 德鲁·菲尔曼 Drew Fellman
◎主  演 克里斯汀·贝尔 Kristen Bell
       李冰冰 Bingbing Li

◎标  签 纪录片 | 大熊猫 | 熊猫 | 美国 | 自然纪录片 | IMAX | 动物 | 2018

◎简  介

  IMAX打造的原创纪录片
  
  在中国成都熊猫基地,科学家们致力于让成年熊猫繁殖,将幼崽引入野外。
  
  该片聚焦一位充满热情的研究人员,她开发了一项新技术,灵感来自于美国新罕布什尔州农村的黑熊计划。一名美国生物学家跨国而来,一名来自内蒙的科学家,以及一名圈养出生、非常有好奇心的雌性熊猫幼崽“倩倩”,展开跨国合作,踏上了改变熊猫生/人生的旅程。
  
  该片以IMAX摄像机拍摄,全程捕捉倩倩的刺激新旅程,她将踏出保护栖息地,进入四川山区,发现动物的本性,即使会面临前途未知的挑战。
  
  大卫·道格拉斯&德鲁·费尔曼(《天生狂野》《马达加斯加:狐猴之岛》)执导,费尔曼编写剧本并制片,道格拉斯同时担任摄影指导,Donald Kushner、Steve Ransohoff制片,Li Gen Xiong&Elie Samaha执行制片, Neal Allen担任线上制片人。
  
  该片分级为G,将于2018年4月6日起登陆北美特定IMAX和IMAX3D影院。
Video
ID                                       : 1
Format                                   : HEVC
Format/Info                              : High Efficiency Video Coding
Codec ID                                 : V_MPEGH/ISO/HEVC
Duration                                 : 42 min 17 s
Bit rate                                 : 54.3 Mb/s
Width                                    : 3 840 pixels
Height                                   : 2 160 pixels
Display aspect ratio                     : 16:9
Frame rate mode                          : Constant
Frame rate                               : 23.976 (24000/1001/189150) FPS
Color space                              : YUV
Chroma subsampling                       : 4:2:0
Bit depth                                : 10 bits
Bits/(Pixel*Frame)                       : 0.273
Stream size                              : 16.0 GiB (92%)
Title                                    : Pandas.2018.DOCU.2160p.BluRay.x265.10bit.SDR.DTS-HD.MA.5.1-SWTYBLZ
Writing library                          : x265 3.0ed72af837053:[Windows][GCC 8.2.0][64 bit] 10bit
Encoding settings                        : cpuid=1111039 / frame-threads=6 / numa-pools=36,36 / wpp / no-pmode / no-pme / no-psnr / no-ssim / log-level=2 / input-csp=1 / input-res=3840x2160 / interlace=0 / total-frames=60843 / level-idc=51 / high-tier=1 / uhd-bd=0 / ref=3 / no-allow-non-conformance / repeat-headers / annexb / aud / hrd / info / hash=0 / no-temporal-layers / no-open-gop / min-keyint=1 / keyint=24 / gop-lookahead=0 / bframes=4 / b-adapt=2 / b-pyramid / bframe-bias=0 / rc-lookahead=25 / lookahead-slices=4 / scenecut=40 / radl=0 / no-splice / no-intra-refresh / ctu=64 / min-cu-size=8 / no-rect / no-amp / max-tu-size=32 / tu-inter-depth=1 / tu-intra-depth=1 / limit-tu=0 / rdoq-level=0 / dynamic-rd=0.00 / no-ssim-rd / signhide / no-tskip / nr-intra=0 / nr-inter=0 / no-constrained-intra / strong-intra-smoothing / max-merge=2 / limit-refs=3 / no-limit-modes / me=1 / subme=2 / merange=57 / temporal-mvp / weightp / no-weightb / no-analyze-src-pics / deblock=0:0 / no-sao / no-sao-non-deblock / rd=3 / no-early-skip / rskip / no-fast-intra / no-tskip-fast / no-cu-lossless / no-b-intra / no-splitrd-skip / rdpenalty=0 / psy-rd=2.00 / psy-rdoq=0.00 / no-rd-refine / no-lossless / cbqpoffs=0 / crqpoffs=0 / rc=crf / crf=16.0 / qcomp=0.60 / qpstep=4 / stats-write=0 / stats-read=0 / vbv-maxrate=160000 / vbv-bufsize=160000 / vbv-init=0.9 / crf-max=0.0 / crf-min=0.0 / ipratio=1.40 / pbratio=1.30 / aq-mode=1 / aq-strength=1.00 / cutree / zone-count=0 / no-strict-cbr / qg-size=32 / no-rc-grain / qpmax=69 / qpmin=0 / no-const-vbv / sar=1 / overscan=0 / videoformat=5 / range=0 / colorprim=2 / transfer=2 / colormatrix=2 / chromaloc=0 / display-window=0 / max-cll=0,0 / min-luma=0 / max-luma=1023 / log2-max-poc-lsb=8 / vui-timing-info / vui-hrd-info / slices=1 / opt-qp-pps / opt-ref-list-length-pps / no-multi-pass-opt-rps / scenecut-bias=0.05 / no-opt-cu-delta-qp / no-aq-motion / no-hdr / no-hdr-opt / no-dhdr10-opt / no-idr-recovery-sei / analysis-reuse-level=5 / scale-factor=0 / refine-intra=0 / refine-inter=0 / refine-mv=0 / refine-ctu-distortion=0 / no-limit-sao / ctu-info=0 / no-lowpass-dct / refine-analysis-type=0 / copy-pic=1 / max-ausize-factor=1.0 / no-dynamic-refine / no-single-sei / no-hevc-aq / qp-adaptation-range=1.00
Language                                 : English
Default                                  : Yes
Forced                                   : No

Audio #1
ID                                       : 2
ID in the original source medium         : 4352 (0x1100)
Format                                   : DTS XLL
Format/Info                              : Digital Theater Systems
Commercial name                          : DTS-HD Master Audio
Codec ID                                 : A_DTS
Duration                                 : 42 min 17 s
Bit rate mode                            : Variable
Bit rate                                 : 3 881 kb/s
Channel(s)                               : 6 channels
Channel layout                           : C L R Ls Rs LFE
Sampling rate                            : 48.0 kHz
Frame rate                               : 93.750 FPS (512 SPF)
Bit depth                                : 24 bits
Compression mode                         : Lossless
Stream size                              : 1.15 GiB (7%)
Title                                    : Pandas.2018.DOCU.2160p.BluRay.x265.10bit.SDR.DTS-HD.MA.5.1-SWTYBLZ
Language                                 : English
Default                                  : Yes
Forced                                   : No
Original source medium                   : Blu-ray

Audio #2
ID                                       : 3
Format                                   : AC-3
Format/Info                              : Audio Coding 3
Commercial name                          : Dolby Digital
Codec ID                                 : A_AC3
Duration                                 : 42 min 17 s
Bit rate mode                            : Constant
Bit rate                                 : 640 kb/s
Channel(s)                               : 6 channels
Channel layout                           : L R C LFE Ls Rs
Sampling rate                            : 48.0 kHz
Frame rate                               : 31.250 FPS (1536 SPF)
Compression mode                         : Lossy
Stream size                              : 194 MiB (1%)
Title                                    : Pandas.2018.DOCU.2160p.BluRay.x265.10bit.SDR.DTS-HD.MA.5.1-SWTYBLZ
Language                                 : English
Service kind                             : Complete Main
Default                                  : No
Forced                                   : No

Text #1
ID                                       : 4
Format                                   : UTF-8
Codec ID                                 : S_TEXT/UTF8
Codec ID/Info                            : UTF-8 Plain Text
Duration                                 : 38 min 21 s
Bit rate                                 : 42 b/s
Count of elements                        : 337
Stream size                              : 11.8 KiB (0%)
Title                                    : English-SRT
Language                                 : English
Default                                  : Yes
Forced                                   : No

Text #2
ID                                       : 5
ID in the original source medium         : 4768 (0x12A0)
Format                                   : PGS
Muxing mode                              : zlib
Codec ID                                 : S_HDMV/PGS
Codec ID/Info                            : Picture based subtitle format used on BDs/HD-DVDs
Duration                                 : 39 min 27 s
Bit rate                                 : 28.3 kb/s
Count of elements                        : 736
Stream size                              : 7.98 MiB (0%)
Title                                    : English-PGS
Language                                 : English
Default                                  : No
Forced                                   : No
Original source medium                   : Blu-ray

Text #3
ID                                       : 6
ID in the original source medium         : 4769 (0x12A1)
Format                                   : PGS
Muxing mode                              : zlib
Codec ID                                 : S_HDMV/PGS
Codec ID/Info                            : Picture based subtitle format used on BDs/HD-DVDs
Duration                                 : 40 min 22 s
Bit rate                                 : 25.8 kb/s
Count of elements                        : 652
Stream size                              : 7.46 MiB (0%)
Title                                    : French-PGS
Language                                 : French
Default                                  : No
Forced                                   : No
Original source medium                   : Blu-ray

Text #4
ID                                       : 7
ID in the original source medium         : 4770 (0x12A2)
Format                                   : PGS
Muxing mode                              : zlib
Codec ID                                 : S_HDMV/PGS
Codec ID/Info                            : Picture based subtitle format used on BDs/HD-DVDs
Duration                                 : 40 min 22 s
Bit rate                                 : 25.2 kb/s
Count of elements                        : 652
Stream size                              : 7.29 MiB (0%)
Title                                    : Spanish-PGS
Language                                 : Spanish
Default                                  : No
Forced                                   : No
Original source medium                   : Blu-ray

Menu
00:00:00.000                             : en:Chapter 01
00:09:56.846                             : en:Chapter 02
00:20:53.835                             : en:Chapter 03
00:30:53.268                             : en:Chapter 04
00:39:53.974                             : en:Chapter 05




baa090ba47a27bc2980d48ae78dea2f9.zip (89.72 KB, 下载次数: 0)

回复

使用道具 举报

小黑屋|百度云资源论坛 |网站地图

本网站所有资源来自网络,如无意中侵犯了您的权益,请发邮件至 [email protected],立即清除相关链接

GMT+8, 2020-9-26 18:55 , Processed in 0.099975 second(s), 23 queries .

Powered by Discuz! X3.2

© 2001-2013 Comsenz Inc.

快速回复 返回顶部 返回列表