百度云资源论坛

 找回密码
 立即注册
搜索

最后证人 The.Last.Witness.2018.1080p.BluRay.x264.DTS-HD.MA.5.1-FGT 9.59GB

[复制链接]
百度云电影 发表于 2020-9-5 09:09:13 | 显示全部楼层 |阅读模式
帖子完整标题:最后证人 The.Last.Witness.2018.1080p.BluRay.x264.DTS-HD.MA.5.1-FGT 9.59GB




◎译  名 最后证人
◎片  名 The Last Witness
◎年  代 2018
◎产  地 英国,波兰
◎类  别 惊悚 / 历史
◎语  言 英语
◎上映日期 2018-05-11(波兰)
◎IMDb评分  5.5/10 from 1495 users
◎片  长 97分钟
◎导  演 皮奥特·斯科皮亚克 Piotr Szkopiak
◎编  剧 保罗·萨班博夫斯基 Paul Szambowski / 皮奥特·斯科皮亚克 Piotr Szkopiak
◎主  演 亚历克斯·帕蒂弗 Alex Pettyfer
       罗伯特·温茨凯维奇 Robert Wieckiewicz
       妲露拉·莱莉 Talulah Riley
       迈克尔·刚本 Michael Gambon
       查尔斯·德特 Charles De'Ath
       霍莉·阿斯顿 Holly Aston
       安妮塔·凯里 Anita Carey
       皮奥塔·斯特拉莫夫斯基 Piotr Stramowski
       威尔·索普 Will Thorp

◎标  签 波兰 | 历史 | 二战 | 历史真相 | 英国 | 真实事件改编 | 剧情 | 战争

◎简  介

  故事围绕记者斯蒂芬·安德伍德(帕蒂弗饰)展开,震惊世人的卡廷惨案22000余波兰人被残忍杀害,在安德伍德的抽丝剥茧中,发现事件实则为斯大林指使,并非纳粹所谓。影片正在英国西米德兰兹拍摄中。
Video
ID                                       : 1
Format                                   : AVC
Format/Info                              : Advanced Video Codec
Format settings                          : CABAC / 4 Ref Frames
Format settings, CABAC                   : Yes
Format settings, ReFrames                : 4 frames
Codec ID                                 : V_MPEG4/ISO/AVC
Duration                                 : 1 h 33 min
Bit rate                                 : 11.5 Mb/s
Width                                    : 1 920 pixels
Height                                   : 804 pixels
Display aspect ratio                     : 2.40:1
Frame rate mode                          : Constant
Frame rate                               : 24.000 FPS
Color space                              : YUV
Chroma subsampling                       : 4:2:0
Bit depth                                : 8 bits
Scan type                                : Progressive
Bits/(Pixel*Frame)                       : 0.310
Stream size                              : 7.47 GiB (78%)
Title                                    : The.Last.Witness.2018.1080p.BluRay.x264.DTS-HD.MA.5.1-FGT
Writing library                          : x264 core 148 r2795M aaa9aa8
Encoding settings                        : cabac=1 / ref=4 / deblock=1:-2:-2 / analyse=0x3:0x113 / me=umh / subme=9 / psy=1 / psy_rd=1.00:0.15 / mixed_ref=1 / me_range=16 / chroma_me=1 / trellis=2 / 8x8dct=1 / cqm=0 / deadzone=21,11 / fast_pskip=1 / chroma_qp_offset=-3 / threads=24 / lookahead_threads=3 / sliced_threads=0 / nr=0 / decimate=1 / interlaced=0 / bluray_compat=0 / constrained_intra=0 / bframes=3 / b_pyramid=2 / b_adapt=1 / b_bias=0 / direct=3 / weightb=1 / open_gop=0 / weightp=2 / keyint=250 / keyint_min=25 / scenecut=40 / intra_refresh=0 / rc_lookahead=50 / rc=2pass / mbtree=1 / bitrate=11500 / ratetol=1.0 / qcomp=0.60 / qpmin=0 / qpmax=69 / qpstep=4 / cplxblur=20.0 / qblur=0.5 / vbv_maxrate=31250 / vbv_bufsize=31250 / nal_hrd=none / filler=0 / ip_ratio=1.40 / aq=1:1.00
Language                                 : English
Default                                  : Yes
Forced                                   : No

Audio
ID                                       : 2
Format                                   : DTS XLL
Format/Info                              : Digital Theater Systems
Commercial name                          : DTS-HD Master Audio
Codec ID                                 : A_DTS
Duration                                 : 1 h 33 min
Bit rate mode                            : Variable
Bit rate                                 : 3 250 kb/s
Channel(s)                               : 6 channels
Channel layout                           : C L R Ls Rs LFE
Sampling rate                            : 48.0 kHz
Frame rate                               : 93.750 FPS (512 SPF)
Bit depth                                : 24 bits
Compression mode                         : Lossless
Stream size                              : 2.11 GiB (22%)
Title                                    : The.Last.Witness.2018.1080p.BluRay.x264.DTS-HD.MA.5.1-FGT
Language                                 : English
Default                                  : Yes
Forced                                   : No

Menu
00:00:00.000                             : en:Chapter 01
00:00:21.916                             : en:Chapter 02
00:07:04.000                             : en:Chapter 03
00:15:01.500                             : en:Chapter 04
00:21:44.958                             : en:Chapter 05
00:30:11.250                             : en:Chapter 06
00:37:07.375                             : en:Chapter 07
00:49:33.208                             : en:Chapter 08
00:56:23.083                             : en:Chapter 09
01:02:49.541                             : en:Chapter 10
01:08:34.166                             : en:Chapter 11
01:19:08.083                             : en:Chapter 12
01:30:19.708                             : en:Chapter 13




                                                                                                                                                                                                        
                                                                                                                                                                                                                                                                                                                                                                                                                                                                                                                                                                                                                                                                                                                              
7a1e3c37f8a76f746671e42b61e5a10e.zip (97.38 KB, 下载次数: 0)

回复

使用道具 举报

小黑屋|百度云资源论坛 |网站地图

本网站所有资源来自网络,如无意中侵犯了您的权益,请发邮件至 [email protected],立即清除相关链接

GMT+8, 2021-1-15 23:30 , Processed in 0.092209 second(s), 23 queries .

Powered by Discuz! X3.2

© 2001-2013 Comsenz Inc.

快速回复 返回顶部 返回列表