百度云资源论坛

 找回密码
 立即注册
搜索

[4K-原盘] 大熊猫/熊猫 Pandas.2018.DOCU.2160p.BluRay.REMUX.HEVC.DTS-HD.MA.5.1-FGT 2...

[复制链接]
百度云资源 发表于 2020-9-4 12:09:47 | 显示全部楼层 |阅读模式
帖子完整标题:大熊猫/熊猫 Pandas.2018.DOCU.2160p.BluRay.REMUX.HEVC.DTS-HD.MA.5.1-FGT 27.40GB




◎译  名 大熊猫/熊猫/熊猫们
◎片  名 Pandas
◎年  代 2018
◎产  地 美国
◎类  别 纪录片
◎语  言 英语
◎上映日期 2018-04-06(美国) / 2020-07-25(上海国际电影节)
◎IMDb评分  7.4/10 from 474 users
◎片  长 42分钟
◎导  演 德鲁·菲尔曼 Drew Fellman
◎编  剧 德鲁·菲尔曼 Drew Fellman
◎主  演 克里斯汀·贝尔 Kristen Bell
       李冰冰 Bingbing Li

◎标  签 纪录片 | 大熊猫 | 熊猫 | 美国 | 自然纪录片 | IMAX | 动物 | 2018

◎简  介

  IMAX打造的原创纪录片
  
  在中国成都熊猫基地,科学家们致力于让成年熊猫繁殖,将幼崽引入野外。
  
  该片聚焦一位充满热情的研究人员,她开发了一项新技术,灵感来自于美国新罕布什尔州农村的黑熊计划。一名美国生物学家跨国而来,一名来自内蒙的科学家,以及一名圈养出生、非常有好奇心的雌性熊猫幼崽“倩倩”,展开跨国合作,踏上了改变熊猫生/人生的旅程。
  
  该片以IMAX摄像机拍摄,全程捕捉倩倩的刺激新旅程,她将踏出保护栖息地,进入四川山区,发现动物的本性,即使会面临前途未知的挑战。
  
  大卫·道格拉斯&德鲁·费尔曼(《天生狂野》《马达加斯加:狐猴之岛》)执导,费尔曼编写剧本并制片,道格拉斯同时担任摄影指导,Donald Kushner、Steve Ransohoff制片,Li Gen Xiong&Elie Samaha执行制片, Neal Allen担任线上制片人。
  
  该片分级为G,将于2018年4月6日起登陆北美特定IMAX和IMAX3D影院。
Video
ID                                       : 1
ID in the original source medium         : 4113 (0x1011)
Format                                   : HEVC
Format/Info                              : High Efficiency Video Coding
HDR format                               : SMPTE ST 2086, HDR10 compatible
Codec ID                                 : V_MPEGH/ISO/HEVC
Duration                                 : 42 min 17 s
Bit rate                                 : 87.6 Mb/s
Width                                    : 3 840 pixels
Height                                   : 2 160 pixels
Display aspect ratio                     : 16:9
Frame rate mode                          : Constant
Frame rate                               : 23.976 (24000/1001/189150) FPS
Color space                              : YUV
Chroma subsampling                       : 4:2:0 (Type 2)
Bit depth                                : 10 bits
Bits/(Pixel*Frame)                       : 0.440
Stream size                              : 25.9 GiB (94%)
Title                                    : Pandas.2018.2160p.BluRay.REMUX.HEVC.DTS-HD.MA.5.1-FGT
Writing library                          : ATEME Titan File 3.9.0 (4.9.0.0)        
Language                                 : English
Default                                  : No
Forced                                   : No
Color range                              : Limited
Color primaries                          : BT.2020
Transfer characteristics                 : PQ
Matrix coefficients                      : BT.2020 non-constant
Mastering display color primaries        : Display P3
Mastering display luminance              : min: 0.0010 cd/m2, max: 1000 cd/m2
Maximum Content Light Level              : 1034 cd/m2
Maximum Frame-Average Light Level        : 292 cd/m2
Original source medium                   : Blu-ray

Audio #1
ID                                       : 2
ID in the original source medium         : 4352 (0x1100)
Format                                   : DTS XLL
Format/Info                              : Digital Theater Systems
Commercial name                          : DTS-HD Master Audio
Codec ID                                 : A_DTS
Duration                                 : 42 min 17 s
Bit rate mode                            : Variable
Bit rate                                 : 3 881 kb/s
Channel(s)                               : 6 channels
Channel layout                           : C L R Ls Rs LFE
Sampling rate                            : 48.0 kHz
Frame rate                               : 93.750 FPS (512 SPF)
Bit depth                                : 24 bits
Compression mode                         : Lossless
Stream size                              : 1.15 GiB (4%)
Title                                    : Pandas.2018.2160p.BluRay.REMUX.HEVC.DTS-HD.MA.5.1-FGT
Language                                 : English
Default                                  : Yes
Forced                                   : No
Original source medium                   : Blu-ray

Audio #2
ID                                       : 3
ID in the original source medium         : 4353 (0x1101)
Format                                   : AC-3
Format/Info                              : Audio Coding 3
Commercial name                          : Dolby Digital
Codec ID                                 : A_AC3
Duration                                 : 42 min 17 s
Bit rate mode                            : Constant
Bit rate                                 : 640 kb/s
Channel(s)                               : 6 channels
Channel layout                           : L R C LFE Ls Rs
Sampling rate                            : 48.0 kHz
Frame rate                               : 31.250 FPS (1536 SPF)
Compression mode                         : Lossy
Stream size                              : 194 MiB (1%)
Title                                    : Pandas.2018.2160p.BluRay.REMUX.HEVC.DTS-HD.MA.5.1-FGT
Language                                 : French
Service kind                             : Complete Main
Default                                  : No
Forced                                   : No
Original source medium                   : Blu-ray

Audio #3
ID                                       : 4
ID in the original source medium         : 4354 (0x1102)
Format                                   : AC-3
Format/Info                              : Audio Coding 3
Commercial name                          : Dolby Digital
Codec ID                                 : A_AC3
Duration                                 : 42 min 17 s
Bit rate mode                            : Constant
Bit rate                                 : 640 kb/s
Channel(s)                               : 6 channels
Channel layout                           : L R C LFE Ls Rs
Sampling rate                            : 48.0 kHz
Frame rate                               : 31.250 FPS (1536 SPF)
Compression mode                         : Lossy
Stream size                              : 194 MiB (1%)
Title                                    : Pandas.2018.2160p.BluRay.REMUX.HEVC.DTS-HD.MA.5.1-FGT
Language                                 : Spanish
Service kind                             : Complete Main
Default                                  : No
Forced                                   : No
Original source medium                   : Blu-ray

Text #1
ID                                       : 5
Format                                   : UTF-8
Codec ID                                 : S_TEXT/UTF8
Codec ID/Info                            : UTF-8 Plain Text
Duration                                 : 38 min 21 s
Bit rate                                 : 42 b/s
Count of elements                        : 337
Stream size                              : 11.8 KiB (0%)
Title                                    : English-SRT
Language                                 : English
Default                                  : Yes
Forced                                   : No

Text #2
ID                                       : 6
ID in the original source medium         : 4768 (0x12A0)
Format                                   : PGS
Muxing mode                              : zlib
Codec ID                                 : S_HDMV/PGS
Codec ID/Info                            : Picture based subtitle format used on BDs/HD-DVDs
Duration                                 : 39 min 27 s
Bit rate                                 : 28.3 kb/s
Count of elements                        : 736
Stream size                              : 7.98 MiB (0%)
Title                                    : English-PGS
Language                                 : English
Default                                  : No
Forced                                   : No
Original source medium                   : Blu-ray

Text #3
ID                                       : 7
ID in the original source medium         : 4769 (0x12A1)
Format                                   : PGS
Muxing mode                              : zlib
Codec ID                                 : S_HDMV/PGS
Codec ID/Info                            : Picture based subtitle format used on BDs/HD-DVDs
Duration                                 : 40 min 22 s
Bit rate                                 : 25.8 kb/s
Count of elements                        : 652
Stream size                              : 7.46 MiB (0%)
Title                                    : French-PGS
Language                                 : French
Default                                  : No
Forced                                   : No
Original source medium                   : Blu-ray

Text #4
ID                                       : 8
ID in the original source medium         : 4770 (0x12A2)
Format                                   : PGS
Muxing mode                              : zlib
Codec ID                                 : S_HDMV/PGS
Codec ID/Info                            : Picture based subtitle format used on BDs/HD-DVDs
Duration                                 : 40 min 22 s
Bit rate                                 : 25.2 kb/s
Count of elements                        : 652
Stream size                              : 7.29 MiB (0%)
Title                                    : Spanish-PGS
Language                                 : Spanish
Default                                  : No
Forced                                   : No
Original source medium                   : Blu-ray

Menu
00:00:00.000                             : en:Chapter 01
00:09:56.846                             : en:Chapter 02
00:20:53.835                             : en:Chapter 03
00:30:53.268                             : en:Chapter 04
00:39:53.974                             : en:Chapter 05




                                                                                                                                                                                                        
                                                                                                                                                                                                                                                                                                                                                                                                                                                                                                                                                                                                                                                                                                                              
a4acd7f3ae71780029723ed7234219f1.zip (69.99 KB, 下载次数: 0)

回复

使用道具 举报

小黑屋|百度云资源论坛 |网站地图

本网站所有资源来自网络,如无意中侵犯了您的权益,请发邮件至 [email protected],立即清除相关链接

GMT+8, 2020-9-29 08:15 , Processed in 0.102931 second(s), 23 queries .

Powered by Discuz! X3.2

© 2001-2013 Comsenz Inc.

快速回复 返回顶部 返回列表