百度云资源论坛

 找回密码
 立即注册
搜索

[4K-原盘] 揭秘海军陆战队 We.the.Marines.2017.DOCU.2160p.BluRay.REMUX.HEVC.SDR.DT...

[复制链接]
百度云电影 发表于 2020-9-4 12:09:47 | 显示全部楼层 |阅读模式
帖子完整标题:揭秘海军陆战队 We.the.Marines.2017.DOCU.2160p.BluRay.REMUX.HEVC.SDR.DTS-HD.MA.TrueHD.7.1.Atmos-FGT 9.73GB




◎译  名 揭秘海军陆战队
◎片  名 We, the Marines
◎年  代 2017
◎产  地 美国
◎类  别 纪录片 / 短片
◎语  言 英语
◎上映日期 2017-07-21(美国)
◎IMDb评分  5.4/10 from 395 users
◎片  长 38分钟
◎导  演 格雷戈·迈吉里弗雷 Greg MacGillivray
◎主  演 吉恩·哈克曼 Gene Hackman

◎标  签 纪录片 | 军事 | 美国 | 2017 | 短片 | IMAX | 美国电影 | 紀錄片

◎简  介

  这部纪录片由身位演员和前海军陆战队员的金·哈可曼解说,展现了美国海军陆战队成员的成长经历。
Video
ID                                       : 1
ID in the original source medium         : 4113 (0x1011)
Format                                   : HEVC
Format/Info                              : High Efficiency Video Coding
Codec ID                                 : V_MPEGH/ISO/HEVC
Duration                                 : 37 min 53 s
Bit rate                                 : 29.1 Mb/s
Width                                    : 3 840 pixels
Height                                   : 2 160 pixels
Display aspect ratio                     : 16:9
Frame rate mode                          : Constant
Frame rate                               : 24.000 FPS
Color space                              : YUV
Chroma subsampling                       : 4:2:0
Bit depth                                : 10 bits
Bits/(Pixel*Frame)                       : 0.146
Stream size                              : 7.71 GiB (79%)
Title                                    : We.the.Marines.2017.DOCU.2160p.BluRay.REMUX.HEVC.SDR.DTS-HD.MA.TrueHD.7.1.Atmos-FGT
Language                                 : English
Default                                  : No
Forced                                   : No
Color range                              : Limited
Color primaries                          : BT.709
Transfer characteristics                 : BT.709
Matrix coefficients                      : BT.709
Original source medium                   : Blu-ray

Audio #1
ID                                       : 2
ID in the original source medium         : 4352 (0x1100)
Format                                   : MLP FBA 16-ch
Format/Info                              : Meridian Lossless Packing FBA with 16-channel presentation
Commercial name                          : Dolby TrueHD with Dolby Atmos
Codec ID                                 : A_TRUEHD
Duration                                 : 37 min 53 s
Bit rate mode                            : Variable
Bit rate                                 : 2 943 kb/s
Maximum bit rate                         : 4 014 kb/s
Channel(s)                               : 8 channels
Channel layout                           : L R C LFE Ls Rs Lb Rb
Sampling rate                            : 48.0 kHz
Frame rate                               : 1 200.000 FPS (40 SPF)
Compression mode                         : Lossless
Stream size                              : 798 MiB (8%)
Title                                    : We.the.Marines.2017.DOCU.2160p.BluRay.REMUX.HEVC.SDR.DTS-HD.MA.TrueHD.7.1.Atmos-FGT
Language                                 : English
Default                                  : Yes
Forced                                   : No
Original source medium                   : Blu-ray
Number of dynamic objects                : 15
Bed channel count                        : 1 channel
Bed channel configuration                : LFE

Audio #2
ID                                       : 3
Format                                   : DTS XLL
Format/Info                              : Digital Theater Systems
Commercial name                          : DTS-HD Master Audio
Codec ID                                 : A_DTS
Duration                                 : 37 min 53 s
Bit rate mode                            : Variable
Bit rate                                 : 3 979 kb/s
Channel(s)                               : 8 channels
Channel layout                           : C L R LFE Lb Rb Lss Rss
Sampling rate                            : 48.0 kHz
Frame rate                               : 93.750 FPS (512 SPF)
Bit depth                                : 24 bits
Compression mode                         : Lossless
Stream size                              : 1.05 GiB (11%)
Title                                    : We.the.Marines.2017.DOCU.2160p.BluRay.REMUX.HEVC.SDR.DTS-HD.MA.TrueHD.7.1.Atmos-FGT
Language                                 : English
Default                                  : No
Forced                                   : No

Audio #3
ID                                       : 4
ID in the original source medium         : 4352 (0x1100)
Format                                   : AC-3
Format/Info                              : Audio Coding 3
Commercial name                          : Dolby Digital
Codec ID                                 : A_AC3
Duration                                 : 37 min 53 s
Bit rate mode                            : Constant
Bit rate                                 : 640 kb/s
Channel(s)                               : 6 channels
Channel layout                           : L R C LFE Ls Rs
Sampling rate                            : 48.0 kHz
Frame rate                               : 31.250 FPS (1536 SPF)
Compression mode                         : Lossy
Stream size                              : 173 MiB (2%)
Title                                    : We.the.Marines.2017.DOCU.2160p.BluRay.REMUX.HEVC.SDR.DTS-HD.MA.TrueHD.7.1.Atmos-FGT
Language                                 : English
Service kind                             : Complete Main
Default                                  : No
Forced                                   : No
Original source medium                   : Blu-ray

Text #1
ID                                       : 5
Format                                   : UTF-8
Codec ID                                 : S_TEXT/UTF8
Codec ID/Info                            : UTF-8 Plain Text
Duration                                 : 37 min 23 s
Bit rate                                 : 65 b/s
Count of elements                        : 572
Stream size                              : 17.9 KiB (0%)
Title                                    : English-SRT
Language                                 : English
Default                                  : Yes
Forced                                   : No

Text #2
ID                                       : 6
Format                                   : UTF-8
Codec ID                                 : S_TEXT/UTF8
Codec ID/Info                            : UTF-8 Plain Text
Duration                                 : 37 min 48 s
Bit rate                                 : 72 b/s
Count of elements                        : 643
Stream size                              : 20.2 KiB (0%)
Title                                    : English-SDH-SRT
Language                                 : English
Default                                  : No
Forced                                   : No

Text #3
ID                                       : 7
ID in the original source medium         : 4608 (0x1200)
Format                                   : PGS
Muxing mode                              : zlib
Codec ID                                 : S_HDMV/PGS
Codec ID/Info                            : Picture based subtitle format used on BDs/HD-DVDs
Duration                                 : 37 min 48 s
Bit rate                                 : 30.3 kb/s
Count of elements                        : 1292
Stream size                              : 8.20 MiB (0%)
Title                                    : English-PGS
Language                                 : English
Default                                  : No
Forced                                   : No
Original source medium                   : Blu-ray

Menu
00:00:00.000                             : en:Chapter 01
00:04:14.500                             : en:Chapter 02
00:09:58.375                             : en:Chapter 03
00:14:02.416                             : en:Chapter 04
00:18:11.625                             : en:Chapter 05
00:21:08.583                             : en:Chapter 06
00:25:02.708                             : en:Chapter 07
00:28:49.333                             : en:Chapter 08
00:32:38.958                             : en:Chapter 09
00:37:04.125                             : en:Chapter 10




                                                                                                                                                                                                        
                                                                                                                                                                                                                                                                                                                                                                                                                                                                                                                                                                                                                                                                                                                              
8afb549f6d304c84bdd1ce13ca91700f.zip (50.22 KB, 下载次数: 0)

回复

使用道具 举报

小黑屋|百度云资源论坛 |网站地图

本网站所有资源来自网络,如无意中侵犯了您的权益,请发邮件至 [email protected],立即清除相关链接

GMT+8, 2020-9-26 19:31 , Processed in 0.107449 second(s), 23 queries .

Powered by Discuz! X3.2

© 2001-2013 Comsenz Inc.

快速回复 返回顶部 返回列表