百度云资源论坛

 找回密码
 立即注册
搜索

我的冤家是条狗/帕特里克 Patrick.2018.1080p.BluRay.X264-AMIABLE 6.56GB

[复制链接]
百度云电影 发表于 2020-9-4 11:59:14 | 显示全部楼层 |阅读模式
帖子完整标题:我的冤家是条狗/帕特里克 Patrick.2018.1080p.BluRay.X264-AMIABLE 6.56GB




◎译  名 我的冤家是条狗/帕特里克/缘来靠八哥?(港)/萌犬派崔克(台)
◎片  名 Patrick
◎年  代 2018
◎产  地 英国
◎类  别 喜剧 / 家庭
◎语  言 英语
◎上映日期 2018-06-29(英国) / 2018-11-09(中国大陆)
◎IMDb评分  5.9/10 from 2778 users
◎片  长 95分钟
◎导  演 曼迪·弗莱彻 Mandie Fletcher
◎编  剧 凡妮莎·戴维斯 Vanessa Davies / 曼迪·弗莱彻 Mandie Fletcher / 保罗·德·沃斯 Paul de Vos
◎主  演 比蒂·埃德蒙森 Beattie Edmondson
       艾德·斯克林 Ed Skrein
       米兰卡·布鲁克斯 Milanka Brooks
       杰玛·琼斯 Gemma Jones
       切瑞·朗吉 Cherie Lunghi
       艾米丽·阿塔克 Emily Atack
       彼得·戴维森 Peter Davison
       艾米莉亚·琼斯 Emilia Jones
       珍妮弗·桑德斯 Jennifer Saunders
       阿德里安·斯卡伯勒 Adrian Scarborough
       伯纳德·克理宾斯 Bernard Cribbins
       汤姆·班尼特 Tom Bennett

◎标  签 狗狗 | 喜剧 | 温情 | 英国 | 动物 | 英式幽默 | 成长 | 2018

◎简  介

  一事无成的大龄女青年莎拉意外继承了外婆的宠物犬“八哥”。这让她原本就一团乱麻的生 活更加雪上加霜。当这位四条腿的不速之客不断地制造麻烦时,五短身材又臭脾气的它, 也给莎拉的生活带来了阳光和转机。
Video
ID                                       : 1
Format                                   : AVC
Format/Info                              : Advanced Video Codec
Format settings                          : CABAC / 5 Ref Frames
Format settings, CABAC                   : Yes
Format settings, Reference frames        : 5 frames
Codec ID                                 : V_MPEG4/ISO/AVC
Duration                                 : 1 h 34 min
Bit rate                                 : 8 425 kb/s
Width                                    : 1 920 pixels
Height                                   : 808 pixels
Display aspect ratio                     : 2.40:1
Frame rate mode                          : Constant
Frame rate                               : 23.976 (24000/1001/189150) FPS
Color space                              : YUV
Chroma subsampling                       : 4:2:0
Bit depth                                : 8 bits
Scan type                                : Progressive
Bits/(Pixel*Frame)                       : 0.227
Stream size                              : 5.43 GiB (83%)
Writing library                          : x264 core 158 r2984 3759fcb
Encoding settings                        : cabac=1 / ref=5 / deblock=1:-3:-3 / analyse=0x3:0x113 / me=umh / subme=8 / psy=1 / psy_rd=1.00:0.00 / mixed_ref=1 / me_range=32 / chroma_me=1 / trellis=2 / 8x8dct=1 / cqm=0 / deadzone=21,11 / fast_pskip=1 / chroma_qp_offset=-2 / threads=25 / lookahead_threads=4 / sliced_threads=0 / nr=0 / decimate=1 / interlaced=0 / bluray_compat=0 / constrained_intra=0 / bframes=3 / b_pyramid=2 / b_adapt=2 / b_bias=0 / direct=3 / weightb=1 / open_gop=0 / weightp=2 / keyint=240 / keyint_min=24 / scenecut=40 / intra_refresh=0 / rc_lookahead=50 / rc=2pass / mbtree=1 / bitrate=8425 / ratetol=1.0 / qcomp=0.60 / qpmin=0 / qpmax=69 / qpstep=4 / cplxblur=20.0 / qblur=0.5 / ip_ratio=1.40 / aq=3:0.80
Default                                  : Yes
Forced                                   : No
Statistics Tags Issue                    : no_variable_data 1970-01-01 00:00:00 / no_variable_data 2010-02-22 21:41:29
FromStats_BitRate                        : 8422266
FromStats_Duration                       : 01:34:30.248000000
FromStats_FrameCount                     : 135950
FromStats_StreamSize                     : 5969542241

Audio
ID                                       : 2
Format                                   : DTS
Format/Info                              : Digital Theater Systems
Codec ID                                 : A_DTS
Duration                                 : 1 h 34 min
Bit rate mode                            : Constant
Bit rate                                 : 1 509 kb/s
Channel(s)                               : 6 channels
Channel layout                           : C L R Ls Rs LFE
Sampling rate                            : 48.0 kHz
Frame rate                               : 93.750 FPS (512 SPF)
Bit depth                                : 24 bits
Compression mode                         : Lossy
Stream size                              : 1 020 MiB (15%)
Language                                 : English
Default                                  : Yes
Forced                                   : No
Statistics Tags Issue                    : no_variable_data 1970-01-01 00:00:00 / no_variable_data 2010-02-22 21:41:29
FromStats_BitRate                        : 1508999
FromStats_Duration                       : 01:34:29.739000000
FromStats_FrameCount                     : 531538
FromStats_StreamSize                     : 1069454456

Text #1
ID                                       : 3
Format                                   : UTF-8
Codec ID                                 : S_TEXT/UTF8
Codec ID/Info                            : UTF-8 Plain Text
Language                                 : English
Default                                  : No
Forced                                   : No
Statistics Tags Issue                    : no_variable_data 1970-01-01 00:00:00 / no_variable_data 2010-02-22 21:41:29
FromStats_BitRate                        : 71
FromStats_Duration                       : 01:29:25.652000000
FromStats_FrameCount                     : 1915
FromStats_StreamSize                     : 47847

Text #2
ID                                       : 4
Format                                   : UTF-8
Codec ID                                 : S_TEXT/UTF8
Codec ID/Info                            : UTF-8 Plain Text
Title                                    : SDH
Language                                 : English
Default                                  : No
Forced                                   : No
Statistics Tags Issue                    : no_variable_data 1970-01-01 00:00:00 / no_variable_data 2010-02-22 21:41:29
FromStats_BitRate                        : 77
FromStats_Duration                       : 01:30:26.713000000
FromStats_FrameCount                     : 2125
FromStats_StreamSize                     : 52572

Menu
00:00:00.000                             : en:Chapter 01
00:07:52.847                             : en:Chapter 02
00:16:41.417                             : en:Chapter 03
00:25:01.542                             : en:Chapter 04
00:33:42.062                             : en:Chapter 05
00:39:17.105                             : en:Chapter 06
00:48:08.010                             : en:Chapter 07
00:56:05.320                             : en:Chapter 08
01:06:17.765                             : en:Chapter 09
01:13:38.623                             : en:Chapter 10
01:21:05.319                             : en:Chapter 11
01:28:14.289                             : en:Chapter 12




                                                                                                                                                                                                        
                                                                                                                                                                                                                                                                                                                                                                                                                                                                                    
8a04c60a2fa68feda03a4927be697055.zip (34.35 KB, 下载次数: 0)

回复

使用道具 举报

小黑屋|百度云资源论坛 |网站地图

本网站所有资源来自网络,如无意中侵犯了您的权益,请发邮件至 [email protected],立即清除相关链接

GMT+8, 2021-1-25 20:42 , Processed in 0.105522 second(s), 23 queries .

Powered by Discuz! X3.2

© 2001-2013 Comsenz Inc.

快速回复 返回顶部 返回列表