百度云资源论坛

 找回密码
 立即注册
搜索

[BD-4K] 超人:明日之子 Superman.Man.of.Tomorrow.2020.2160p.BluRay.x265.10bit.SDR...

[复制链接]
百度云资源 发表于 2020-9-3 09:07:19 | 显示全部楼层 |阅读模式
帖子完整标题:超人:明日之子 Superman.Man.of.Tomorrow.2020.2160p.BluRay.x265.10bit.SDR.DTS-HD.MA.5.1-SWTYBLZ 15.75GB




◎译  名 超人:明日之子
◎片  名 Superman: Man of Tomorrow
◎年  代 2020
◎产  地 美国
◎类  别 动作 / 动画
◎语  言 英语
◎上映日期 2020-08-23(美国网络) / 2020-09-08(美国)
◎IMDb评分  6.5/10 from 1304 users
◎片  长 86分钟
◎导  演 克里斯·帕尔默 Chris Palmer
◎编  剧 蒂姆·谢里丹 Tim Sheridan
◎主  演 达伦·克里斯 Darren Criss
       扎克瑞·昆图 Zachary Quinto
       艾克·阿玛迪 Ike Amadi
       尤金·伯德 Eugene Byrd
       David Chen
       亚历珊德拉·达达里奥 Alexandra Daddario
       布雷特·道顿 Brett Dalton
       尼尔·弗林 Neil Flynn
       瑞恩·赫斯特 Ryan Hurst
       茜丝·琼斯 Cissy Jones
       彼得·迈克尔 Piotr Michael
       克里斯蒂娜·米利齐亚 Cristina Milizia
       艾普尔·斯图瓦特 April Stewart
       贝拉米·扬 Bellamy Young

◎标  签 DC | 动画 | 超级英雄 | 漫画改编 | 美国 | 科幻 | 2020 | 超人

◎简  介

  讲述一个年轻的克拉克·肯特在超人生涯早期的故事。关于这部电影的更多细节没有透露。
Video
ID                                       : 1
Format                                   : HEVC
Format/Info                              : High Efficiency Video Coding
Codec ID                                 : V_MPEGH/ISO/HEVC
Duration                                 : 1 h 26 min
Bit rate                                 : 21.1 Mb/s
Width                                    : 3 840 pixels
Height                                   : 2 160 pixels
Display aspect ratio                     : 16:9
Frame rate mode                          : Constant
Frame rate                               : 23.976 (24000/1001/189150) FPS
Color space                              : YUV
Chroma subsampling                       : 4:2:0
Bit depth                                : 10 bits
Bits/(Pixel*Frame)                       : 0.106
Stream size                              : 12.7 GiB (81%)
Title                                    : Superman.Man.of.Tomorrow.2020.2160p.BluRay.x265.10bit.SDR.DTS-HD.MA.5.1-SWTYBLZ
Writing library                          : x265 3.0ed72af837053:[Windows][GCC 8.2.0][64 bit] 10bit
Encoding settings                        : cpuid=1111039 / frame-threads=6 / numa-pools=40 / wpp / no-pmode / no-pme / no-psnr / no-ssim / log-level=2 / input-csp=1 / input-res=3840x2160 / interlace=0 / total-frames=124329 / level-idc=51 / high-tier=1 / uhd-bd=0 / ref=3 / no-allow-non-conformance / repeat-headers / annexb / aud / hrd / info / hash=0 / no-temporal-layers / no-open-gop / min-keyint=1 / keyint=24 / gop-lookahead=0 / bframes=6 / b-adapt=2 / b-pyramid / bframe-bias=0 / rc-lookahead=25 / lookahead-slices=4 / scenecut=40 / radl=0 / no-splice / no-intra-refresh / ctu=64 / min-cu-size=8 / no-rect / no-amp / max-tu-size=32 / tu-inter-depth=1 / tu-intra-depth=1 / limit-tu=0 / rdoq-level=0 / dynamic-rd=0.00 / no-ssim-rd / signhide / no-tskip / nr-intra=0 / nr-inter=0 / no-constrained-intra / strong-intra-smoothing / max-merge=2 / limit-refs=3 / no-limit-modes / me=1 / subme=2 / merange=57 / temporal-mvp / weightp / no-weightb / no-analyze-src-pics / deblock=1:1 / no-sao / no-sao-non-deblock / rd=3 / no-early-skip / rskip / no-fast-intra / no-tskip-fast / no-cu-lossless / no-b-intra / no-splitrd-skip / rdpenalty=0 / psy-rd=0.40 / psy-rdoq=0.00 / no-rd-refine / no-lossless / cbqpoffs=0 / crqpoffs=0 / rc=crf / crf=14.0 / qcomp=0.60 / qpstep=4 / stats-write=0 / stats-read=0 / vbv-maxrate=160000 / vbv-bufsize=160000 / vbv-init=0.9 / crf-max=0.0 / crf-min=0.0 / ipratio=1.40 / pbratio=1.30 / aq-mode=1 / aq-strength=0.40 / cutree / zone-count=0 / no-strict-cbr / qg-size=32 / no-rc-grain / qpmax=69 / qpmin=0 / no-const-vbv / sar=1 / overscan=0 / videoformat=5 / range=0 / colorprim=2 / transfer=2 / colormatrix=2 / chromaloc=0 / display-window=0 / max-cll=0,0 / min-luma=0 / max-luma=1023 / log2-max-poc-lsb=8 / vui-timing-info / vui-hrd-info / slices=1 / opt-qp-pps / opt-ref-list-length-pps / no-multi-pass-opt-rps / scenecut-bias=0.05 / no-opt-cu-delta-qp / no-aq-motion / no-hdr / no-hdr-opt / no-dhdr10-opt / no-idr-recovery-sei / analysis-reuse-level=5 / scale-factor=0 / refine-intra=0 / refine-inter=0 / refine-mv=0 / refine-ctu-distortion=0 / no-limit-sao / ctu-info=0 / no-lowpass-dct / refine-analysis-type=0 / copy-pic=1 / max-ausize-factor=1.0 / no-dynamic-refine / no-single-sei / no-hevc-aq / qp-adaptation-range=1.00
Default                                  : Yes
Forced                                   : No

Audio #1
ID                                       : 2
Format                                   : DTS XLL
Format/Info                              : Digital Theater Systems
Commercial name                          : DTS-HD Master Audio
Codec ID                                 : A_DTS
Duration                                 : 1 h 26 min
Bit rate mode                            : Variable
Bit rate                                 : 4 106 kb/s
Channel(s)                               : 6 channels
Channel layout                           : C L R Ls Rs LFE
Sampling rate                            : 48.0 kHz
Frame rate                               : 93.750 FPS (512 SPF)
Bit depth                                : 24 bits
Compression mode                         : Lossless
Stream size                              : 2.48 GiB (16%)
Title                                    : Superman.Man.of.Tomorrow.2020.2160p.BluRay.x265.10bit.SDR.DTS-HD.MA.5.1-SWTYBLZ
Language                                 : English
Default                                  : Yes
Forced                                   : No

Audio #2
ID                                       : 3
Format                                   : AC-3
Format/Info                              : Audio Coding 3
Commercial name                          : Dolby Digital
Codec ID                                 : A_AC3
Duration                                 : 1 h 26 min
Bit rate mode                            : Constant
Bit rate                                 : 640 kb/s
Channel(s)                               : 6 channels
Channel layout                           : L R C LFE Ls Rs
Sampling rate                            : 48.0 kHz
Frame rate                               : 31.250 FPS (1536 SPF)
Compression mode                         : Lossy
Stream size                              : 396 MiB (2%)
Title                                    : Superman.Man.of.Tomorrow.2020.2160p.BluRay.x265.10bit.SDR.DTS-HD.MA.5.1-SWTYBLZ
Language                                 : English
Service kind                             : Complete Main
Default                                  : No
Forced                                   : No

Text #1
ID                                       : 4
Format                                   : UTF-8
Codec ID                                 : S_TEXT/UTF8
Codec ID/Info                            : UTF-8 Plain Text
Duration                                 : 1 h 21 min
Bit rate                                 : 44 b/s
Count of elements                        : 871
Stream size                              : 26.7 KiB (0%)
Title                                    : English-SRT
Language                                 : English
Default                                  : Yes
Forced                                   : No

Text #2
ID                                       : 5
Format                                   : PGS
Muxing mode                              : zlib
Codec ID                                 : S_HDMV/PGS
Codec ID/Info                            : Picture based subtitle format used on BDs/HD-DVDs
Duration                                 : 1 h 21 min
Bit rate                                 : 30.4 kb/s
Count of elements                        : 2154
Stream size                              : 17.7 MiB (0%)
Title                                    : English-pGS
Language                                 : English
Default                                  : No
Forced                                   : No

Text #3
ID                                       : 6
Format                                   : PGS
Muxing mode                              : zlib
Codec ID                                 : S_HDMV/PGS
Codec ID/Info                            : Picture based subtitle format used on BDs/HD-DVDs
Duration                                 : 1 h 25 min
Bit rate                                 : 25.2 kb/s
Count of elements                        : 1706
Stream size                              : 15.4 MiB (0%)
Title                                    : French-PGS
Language                                 : French
Default                                  : No
Forced                                   : No

Text #4
ID                                       : 7
Format                                   : PGS
Muxing mode                              : zlib
Codec ID                                 : S_HDMV/PGS
Codec ID/Info                            : Picture based subtitle format used on BDs/HD-DVDs
Duration                                 : 1 h 25 min
Bit rate                                 : 24.4 kb/s
Count of elements                        : 1772
Stream size                              : 14.9 MiB (0%)
Title                                    : Spanish-PGS
Language                                 : Spanish
Default                                  : No
Forced                                   : No

Menu
00:00:00.000                             : en:Chapter 1
00:09:25.356                             : en:Chapter 2
00:20:07.540                             : en:Chapter 3
00:31:07.657                             : en:Chapter 4
00:40:24.797                             : en:Chapter 5
00:47:56.499                             : en:Chapter 6
00:57:28.236                             : en:Chapter 7
01:07:09.651                             : en:Chapter 8
01:15:53.883                             : en:Chapter 9
01:22:48.255                             : en:Chapter 10




                                                                                                                                                                                                        


11f2e8d0ea6e27e7094a2137433a0d19.zip (79.54 KB, 下载次数: 0)

回复

使用道具 举报

小黑屋|百度云资源论坛 |网站地图

本网站所有资源来自网络,如无意中侵犯了您的权益,请发邮件至 [email protected],立即清除相关链接

GMT+8, 2020-9-29 09:42 , Processed in 0.135167 second(s), 23 queries .

Powered by Discuz! X3.2

© 2001-2013 Comsenz Inc.

快速回复 返回顶部 返回列表