百度云资源论坛

 找回密码
 立即注册
搜索

[4K-原盘] 超人:明日之子 Superman.Man.of.Tomorrow.2020.2160p.BluRay.REMUX.HEVC.DTS...

[复制链接]
百度云资源 发表于 2020-9-3 08:57:10 | 显示全部楼层 |阅读模式
帖子完整标题:超人:明日之子 Superman.Man.of.Tomorrow.2020.2160p.BluRay.REMUX.HEVC.DTS-HD.MA.5.1-FGT 33.72GB




◎译  名 超人:明日之子
◎片  名 Superman: Man of Tomorrow
◎年  代 2020
◎产  地 美国
◎类  别 动作 / 动画
◎语  言 英语
◎上映日期 2020-08-23(美国网络) / 2020-09-08(美国)
◎IMDb评分  6.5/10 from 1304 users
◎片  长 86分钟
◎导  演 克里斯·帕尔默 Chris Palmer
◎编  剧 蒂姆·谢里丹 Tim Sheridan
◎主  演 达伦·克里斯 Darren Criss
       扎克瑞·昆图 Zachary Quinto
       艾克·阿玛迪 Ike Amadi
       尤金·伯德 Eugene Byrd
       David Chen
       亚历珊德拉·达达里奥 Alexandra Daddario
       布雷特·道顿 Brett Dalton
       尼尔·弗林 Neil Flynn
       瑞恩·赫斯特 Ryan Hurst
       茜丝·琼斯 Cissy Jones
       彼得·迈克尔 Piotr Michael
       克里斯蒂娜·米利齐亚 Cristina Milizia
       艾普尔·斯图瓦特 April Stewart
       贝拉米·扬 Bellamy Young

◎标  签 DC | 动画 | 超级英雄 | 漫画改编 | 美国 | 科幻 | 2020 | 超人

◎简  介

  讲述一个年轻的克拉克·肯特在超人生涯早期的故事。关于这部电影的更多细节没有透露。
Video
ID                                       : 1
ID in the original source medium         : 4113 (0x1011)
Format                                   : HEVC
Format/Info                              : High Efficiency Video Coding
HDR format                               : SMPTE ST 2086, HDR10 compatible
Codec ID                                 : V_MPEGH/ISO/HEVC
Duration                                 : 1 h 26 min
Bit rate                                 : 50.4 Mb/s
Width                                    : 3 840 pixels
Height                                   : 2 160 pixels
Display aspect ratio                     : 16:9
Frame rate mode                          : Constant
Frame rate                               : 23.976 (24000/1001/189150) FPS
Color space                              : YUV
Chroma subsampling                       : 4:2:0 (Type 2)
Bit depth                                : 10 bits
Bits/(Pixel*Frame)                       : 0.254
Stream size                              : 30.4 GiB (90%)
Title                                    : Superman.Man.of.Tomorrow.2020.2160p.BluRay.REMUX.HEVC.DTS-HD.MA.5.1-FGT
Writing library                          : ATEME Titan File 3.9.6 (4.9.6.2)        
Language                                 : English
Default                                  : No
Forced                                   : No
Color range                              : Limited
Color primaries                          : BT.2020
Transfer characteristics                 : PQ
Matrix coefficients                      : BT.2020 non-constant
Mastering display color primaries        : BT.2020
Mastering display luminance              : min: 0.0050 cd/m2, max: 4000 cd/m2
Maximum Content Light Level              : 393 cd/m2
Maximum Frame-Average Light Level        : 188 cd/m2
Original source medium                   : Blu-ray

Audio #1
ID                                       : 2
ID in the original source medium         : 4352 (0x1100)
Format                                   : DTS XLL
Format/Info                              : Digital Theater Systems
Commercial name                          : DTS-HD Master Audio
Codec ID                                 : A_DTS
Duration                                 : 1 h 26 min
Bit rate mode                            : Variable
Bit rate                                 : 4 106 kb/s
Channel(s)                               : 6 channels
Channel layout                           : C L R Ls Rs LFE
Sampling rate                            : 48.0 kHz
Frame rate                               : 93.750 FPS (512 SPF)
Bit depth                                : 24 bits
Compression mode                         : Lossless
Stream size                              : 2.48 GiB (7%)
Title                                    : Superman.Man.of.Tomorrow.2020.2160p.BluRay.REMUX.HEVC.DTS-HD.MA.5.1-FGT
Language                                 : English
Default                                  : Yes
Forced                                   : No
Original source medium                   : Blu-ray

Audio #2
ID                                       : 3
ID in the original source medium         : 4353 (0x1101)
Format                                   : AC-3
Format/Info                              : Audio Coding 3
Commercial name                          : Dolby Digital
Codec ID                                 : A_AC3
Duration                                 : 1 h 26 min
Bit rate mode                            : Constant
Bit rate                                 : 640 kb/s
Channel(s)                               : 6 channels
Channel layout                           : L R C LFE Ls Rs
Sampling rate                            : 48.0 kHz
Frame rate                               : 31.250 FPS (1536 SPF)
Compression mode                         : Lossy
Stream size                              : 396 MiB (1%)
Title                                    : Superman.Man.of.Tomorrow.2020.2160p.BluRay.REMUX.HEVC.DTS-HD.MA.5.1-FGT
Language                                 : French
Service kind                             : Complete Main
Default                                  : No
Forced                                   : No
Original source medium                   : Blu-ray

Audio #3
ID                                       : 4
ID in the original source medium         : 4354 (0x1102)
Format                                   : AC-3
Format/Info                              : Audio Coding 3
Commercial name                          : Dolby Digital
Codec ID                                 : A_AC3
Duration                                 : 1 h 26 min
Bit rate mode                            : Constant
Bit rate                                 : 640 kb/s
Channel(s)                               : 6 channels
Channel layout                           : L R C LFE Ls Rs
Sampling rate                            : 48.0 kHz
Frame rate                               : 31.250 FPS (1536 SPF)
Compression mode                         : Lossy
Stream size                              : 396 MiB (1%)
Title                                    : Superman.Man.of.Tomorrow.2020.2160p.BluRay.REMUX.HEVC.DTS-HD.MA.5.1-FGT
Language                                 : Spanish
Service kind                             : Complete Main
Default                                  : No
Forced                                   : No
Original source medium                   : Blu-ray

Text #1
ID                                       : 5
Format                                   : UTF-8
Codec ID                                 : S_TEXT/UTF8
Codec ID/Info                            : UTF-8 Plain Text
Duration                                 : 1 h 21 min
Bit rate                                 : 44 b/s
Count of elements                        : 871
Stream size                              : 26.7 KiB (0%)
Title                                    : English-SRT
Language                                 : English
Default                                  : Yes
Forced                                   : No

Text #2
ID                                       : 6
ID in the original source medium         : 4768 (0x12A0)
Format                                   : PGS
Muxing mode                              : zlib
Codec ID                                 : S_HDMV/PGS
Codec ID/Info                            : Picture based subtitle format used on BDs/HD-DVDs
Duration                                 : 1 h 21 min
Bit rate                                 : 30.4 kb/s
Count of elements                        : 2154
Stream size                              : 17.7 MiB (0%)
Title                                    : English-PGS
Language                                 : English
Default                                  : No
Forced                                   : No
Original source medium                   : Blu-ray

Text #3
ID                                       : 7
ID in the original source medium         : 4769 (0x12A1)
Format                                   : PGS
Muxing mode                              : zlib
Codec ID                                 : S_HDMV/PGS
Codec ID/Info                            : Picture based subtitle format used on BDs/HD-DVDs
Duration                                 : 1 h 25 min
Bit rate                                 : 25.2 kb/s
Count of elements                        : 1706
Stream size                              : 15.4 MiB (0%)
Title                                    : French-PGS
Language                                 : French
Default                                  : No
Forced                                   : No
Original source medium                   : Blu-ray

Text #4
ID                                       : 8
ID in the original source medium         : 4770 (0x12A2)
Format                                   : PGS
Muxing mode                              : zlib
Codec ID                                 : S_HDMV/PGS
Codec ID/Info                            : Picture based subtitle format used on BDs/HD-DVDs
Duration                                 : 1 h 25 min
Bit rate                                 : 24.4 kb/s
Count of elements                        : 1772
Stream size                              : 14.9 MiB (0%)
Title                                    : Spanish-PGS
Language                                 : Spanish
Default                                  : No
Forced                                   : No
Original source medium                   : Blu-ray

Text #5
ID                                       : 9
ID in the original source medium         : 4771 (0x12A3)
Format                                   : PGS
Muxing mode                              : zlib
Codec ID                                 : S_HDMV/PGS
Codec ID/Info                            : Picture based subtitle format used on BDs/HD-DVDs
Duration                                 : 55 min 51 s
Bit rate                                 : 466 b/s
Count of elements                        : 24
Stream size                              : 191 KiB (0%)
Title                                    : French-FORCED-PGS
Language                                 : French
Default                                  : No
Forced                                   : No
Original source medium                   : Blu-ray

Text #6
ID                                       : 10
ID in the original source medium         : 4771 (0x12A3)
Format                                   : PGS
Muxing mode                              : zlib
Codec ID                                 : S_HDMV/PGS
Codec ID/Info                            : Picture based subtitle format used on BDs/HD-DVDs
Duration                                 : 55 min 51 s
Bit rate                                 : 466 b/s
Count of elements                        : 24
Stream size                              : 191 KiB (0%)
Title                                    : French-FORCED-PGS
Language                                 : French
Default                                  : No
Forced                                   : No
Original source medium                   : Blu-ray

Text #7
ID                                       : 11
ID in the original source medium         : 4772 (0x12A4)
Format                                   : PGS
Muxing mode                              : zlib
Codec ID                                 : S_HDMV/PGS
Codec ID/Info                            : Picture based subtitle format used on BDs/HD-DVDs
Duration                                 : 55 min 14 s
Bit rate                                 : 191 b/s
Count of elements                        : 8
Stream size                              : 77.7 KiB (0%)
Title                                    : Spanish-FORCED-pgs
Language                                 : Spanish
Default                                  : No
Forced                                   : No
Original source medium                   : Blu-ray

Text #8
ID                                       : 12
ID in the original source medium         : 4772 (0x12A4)
Format                                   : PGS
Muxing mode                              : zlib
Codec ID                                 : S_HDMV/PGS
Codec ID/Info                            : Picture based subtitle format used on BDs/HD-DVDs
Duration                                 : 55 min 14 s
Bit rate                                 : 191 b/s
Count of elements                        : 8
Stream size                              : 77.7 KiB (0%)
Title                                    : Spanish-FORCED-pgs
Language                                 : Spanish
Default                                  : No
Forced                                   : No
Original source medium                   : Blu-ray

Menu
00:00:00.000                             : en:Chapter 01
00:09:25.064                             : en:Chapter 02
00:20:07.497                             : en:Chapter 03
00:31:07.532                             : en:Chapter 04
00:40:24.463                             : en:Chapter 05
00:47:56.456                             : en:Chapter 06
00:57:28.194                             : en:Chapter 07
01:07:09.608                             : en:Chapter 08
01:15:53.840                             : en:Chapter 09
01:22:48.213                             : en:Chapter 10





a53a0d731014789b5ee573cc85b7715b.zip (85.03 KB, 下载次数: 0)

回复

使用道具 举报

小黑屋|百度云资源论坛 |网站地图

本网站所有资源来自网络,如无意中侵犯了您的权益,请发邮件至 [email protected],立即清除相关链接

GMT+8, 2020-9-26 20:18 , Processed in 0.111446 second(s), 23 queries .

Powered by Discuz! X3.2

© 2001-2013 Comsenz Inc.

快速回复 返回顶部 返回列表