百度云资源论坛

 找回密码
 立即注册
搜索

[BD-4K] 扑街野营 Boyz.in.the.Wood.2019.HDR.2160p.WEB.H265-NOGRP 9.34GB

[复制链接]
百度云资源 发表于 2020-8-31 11:30:22 | 显示全部楼层 |阅读模式
帖子完整标题:扑街野营 Boyz.in.the.Wood.2019.HDR.2160p.WEB.H265-NOGRP 9.34GB




◎译  名 扑街野营/Get Duked!
◎片  名 Boyz in the Wood
◎年  代 2020
◎产  地 英国
◎类  别 喜剧
◎语  言 英语
◎上映日期 2020-08-28(美国)
◎IMDb评分  6.8/10 from 213 users
◎片  长 87分钟
◎导  演 尼尼安·多夫 Ninian Doff
◎编  剧 尼尼安·多夫 Ninian Doff
◎主  演 艾迪·伊扎德 Eddie Izzard
       凯特·迪基 Kate Dickie
       詹姆斯·科兹莫 James Cosmo
       凯文·格思里 Kevin Guthrie
       乔纳森·阿里斯 Jonathan Aris
       爱丽丝·洛维 Alice Lowe
       山缪尔·博顿利 Samuel Bottomley
       乔治·格伦 Georgie Glen

◎标  签 恐怖 | 喜剧 | 惊悚 | 动作 | 英国 | 2019 | 英国电影 | 艾迪·伊扎德

◎简  介

  amazon original

◎获奖情况

  第22届英国独立电影奖 ?(2019)
  最佳新人导演(提名) 尼尼安·多夫
[quote]Video
ID                                       : 1
Format                                   : HEVC
Format/Info                              : High Efficiency Video Coding
HDR format                               : SMPTE ST 2094 App 4, Version 1, HDR10+ Profile B compatible
Codec ID                                 : V_MPEGH/ISO/HEVC
Duration                                 : 1 h 26 min
Bit rate                                 : 14.8 Mb/s
Width                                    : 3 840 pixels
Height                                   : 1 600 pixels
Display aspect ratio                     : 2.40:1
Frame rate mode                          : Constant
Frame rate                               : 23.976 (24000/1001/189150) FPS
Color space                              : YUV
Chroma subsampling                       : 4:2:0
Bit depth                                : 10 bits
Bits/(Pixel*Frame)                       : 0.100
Stream size                              : 8.94 GiB (96%)
Default                                  : Yes
Forced                                   : No
Color range                              : Limited
Color primaries                          : BT.2020
Transfer characteristics                 : PQ
Matrix coefficients                      : BT.2020 non-constant
Mastering display color primaries        : Display P3
Mastering display luminance              : min: 0.0001 cd/m2, max: 1000 cd/m2
Maximum Content Light Level              : 10000 cd/m2
Maximum Frame-Average Light Level        : 353 cd/m2

Audio
ID                                       : 2
Format                                   : E-AC-3
Format/Info                              : Enhanced AC-3
Commercial name                          : Dolby Digital Plus
Codec ID                                 : A_EAC3
Duration                                 : 1 h 26 min
Bit rate mode                            : Constant
Bit rate                                 : 640 kb/s
Channel(s)                               : 6 channels
Channel layout                           : L R C LFE Ls Rs
Sampling rate                            : 48.0 kHz
Frame rate                               : 31.250 FPS (1536 SPF)
Compression mode                         : Lossy
Stream size                              : 397 MiB (4%)
Language                                 : English
Service kind                             : Complete Main
Default                                  : No
Forced                                   : No

Text #1
ID                                       : 3
Format                                   : UTF-8
Codec ID                                 : S_TEXT/UTF8
Codec ID/Info                            : UTF-8 Plain Text
Duration                                 : 1 h 26 min
Bit rate                                 : 97 b/s
Count of elements                        : 1848
Stream size                              : 61.5 KiB (0%)
Title                                    : English [CC]
Language                                 : English
Default                                  : Yes
Forced                                   : No

Text #2
ID                                       : 4
Format                                   : UTF-8
Codec ID                                 : S_TEXT/UTF8
Codec ID/Info                            : UTF-8 Plain Text
Duration                                 : 50 min 14 s
Bit rate                                 : 1 b/s
Count of elements                        : 17
Stream size                              : 575 Bytes (0%)
Title                                    : German Forced Narrative
Language                                 : German
Default                                  : No
Forced                                   : Yes

Text #3
ID                                       : 5
Format                                   : UTF-8
Codec ID                                 : S_TEXT/UTF8
Codec ID/Info                            : UTF-8 Plain Text
Duration                                 : 1 h 25 min
Bit rate                                 : 62 b/s
Count of elements                        : 1309
Stream size                              : 39.2 KiB (0%)
Title                                    : Bahasa Melayu
Language                                 : Malay
Default                                  : No
Forced                                   : No

Text #4
ID                                       : 6
Format                                   : UTF-8
Codec ID                                 : S_TEXT/UTF8
Codec ID/Info                            : UTF-8 Plain Text
Duration                                 : 1 h 25 min
Bit rate                                 : 63 b/s
Count of elements                        : 1289
Stream size                              : 39.9 KiB (0%)
Title                                    : Dansk
Language                                 : Danish
Default                                  : No
Forced                                   : No

Text #5
ID                                       : 7
Format                                   : UTF-8
Codec ID                                 : S_TEXT/UTF8
Codec ID/Info                            : UTF-8 Plain Text
Duration                                 : 1 h 21 min
Bit rate                                 : 63 b/s
Count of elements                        : 1296
Stream size                              : 38.0 KiB (0%)
Title                                    : Deutsch
Language                                 : German
Default                                  : No
Forced                                   : No

Text #6
ID                                       : 8
Format                                   : UTF-8
Codec ID                                 : S_TEXT/UTF8
Codec ID/Info                            : UTF-8 Plain Text
Duration                                 : 1 h 25 min
Bit rate                                 : 60 b/s
Count of elements                        : 1302
Stream size                              : 38.1 KiB (0%)
Title                                    : Espa?ol (Espa?a)
Language                                 : Spanish
Default                                  : No
Forced                                   : No

Text #7
ID                                       : 9
Format                                   : UTF-8
Codec ID                                 : S_TEXT/UTF8
Codec ID/Info                            : UTF-8 Plain Text
Duration                                 : 1 h 25 min
Bit rate                                 : 64 b/s
Count of elements                        : 1300
Stream size                              : 40.6 KiB (0%)
Title                                    : Espa?ol (Latinoamérica)
Language                                 : Spanish
Default                                  : No
Forced                                   : No

Text #8
ID                                       : 10
Format                                   : UTF-8
Codec ID                                 : S_TEXT/UTF8
Codec ID/Info                            : UTF-8 Plain Text
Duration                                 : 1 h 25 min
Bit rate                                 : 59 b/s
Count of elements                        : 1290
Stream size                              : 37.7 KiB (0%)
Title                                    : Fran?ais
Language                                 : French
Default                                  : No
Forced                                   : No

Text #9
ID                                       : 11
Format                                   : UTF-8
Codec ID                                 : S_TEXT/UTF8
Codec ID/Info                            : UTF-8 Plain Text
Duration                                 : 1 h 25 min
Bit rate                                 : 64 b/s
Count of elements                        : 1291
Stream size                              : 40.3 KiB (0%)
Title                                    : Indonesia
Language                                 : Indonesian
Default                                  : No
Forced                                   : No

Text #10
ID                                       : 12
Format                                   : UTF-8
Codec ID                                 : S_TEXT/UTF8
Codec ID/Info                            : UTF-8 Plain Text
Duration                                 : 1 h 25 min
Bit rate                                 : 56 b/s
Count of elements                        : 1300
Stream size                              : 35.6 KiB (0%)
Title                                    : Italiano
Language                                 : Italian
Default                                  : No
Forced                                   : No

Text #11
ID                                       : 13
Format                                   : UTF-8
Codec ID                                 : S_TEXT/UTF8
Codec ID/Info                            : UTF-8 Plain Text
Duration                                 : 1 h 25 min
Bit rate                                 : 53 b/s
Count of elements                        : 1221
Stream size                              : 33.5 KiB (0%)
Title                                    : Nederlands
Language                                 : Dutch
Default                                  : No
Forced                                   : No

Text #12
ID                                       : 14
Format                                   : UTF-8
Codec ID                                 : S_TEXT/UTF8
Codec ID/Info                            : UTF-8 Plain Text
Duration                                 : 1 h 25 min
Bit rate                                 : 62 b/s
Count of elements                        : 1284
Stream size                              : 39.2 KiB (0%)
Title                                    : Norsk Bokm?l
Language                                 : Norwegian
Default                                  : No
Forced                                   : No

Text #13
ID                                       : 15
Format                                   : UTF-8
Codec ID                                 : S_TEXT/UTF8
Codec ID/Info                            : UTF-8 Plain Text
Duration                                 : 1 h 25 min
Bit rate                                 : 61 b/s
Count of elements                        : 1301
Stream size                              : 38.8 KiB (0%)
Title                                    : Polski
Language                                 : Polish
Default                                  : No
Forced                                   : No

Text #14
ID                                       : 16
Format                                   : UTF-8
Codec ID                                 : S_TEXT/UTF8
Codec ID/Info                            : UTF-8 Plain Text
Duration                                 : 1 h 21 min
Bit rate                                 : 64 b/s
Count of elements                        : 1298
Stream size                              : 38.3 KiB (0%)
Title                                    : Português (Brasil)
Language                                 : Portuguese
Default                                  : No
Forced                                   : No

Text #15
ID                                       : 17
Format                                   : UTF-8
Codec ID                                 : S_TEXT/UTF8
Codec ID/Info                            : UTF-8 Plain Text
Duration                                 : 1 h 25 min
Bit rate                                 : 62 b/s
Count of elements                        : 1290
Stream size                              : 39.2 KiB (0%)
Title                                    : Português (Portugal)
Language                                 : Portuguese
Default                                  : No
Forced                                   : No

Text #16
ID                                       : 18
Format                                   : UTF-8
Codec ID                                 : S_TEXT/UTF8
Codec ID/Info                            : UTF-8 Plain Text
Duration                                 : 1 h 25 min
Bit rate                                 : 61 b/s
Count of elements                        : 1274
Stream size                              : 38.7 KiB (0%)
Title                                    : Suomi
Language                                 : Finnish
Default                                  : No
Forced                                   : No

Text #17
ID                                       : 19
Format                                   : UTF-8
Codec ID                                 : S_TEXT/UTF8
Codec ID/Info                            : UTF-8 Plain Text
Duration                                 : 1 h 25 min
Bit rate                                 : 60 b/s
Count of elements                        : 1227
Stream size                              : 38.2 KiB (0%)
Title                                    : Svenska
Language                                 : Swedish
Default                                  : No
Forced                                   : No

Text #18
ID                                       : 20
Format                                   : UTF-8
Codec ID                                 : S_TEXT/UTF8
Codec ID/Info                            : UTF-8 Plain Text
Duration                                 : 1 h 25 min
Bit rate                                 : 65 b/s
Count of elements                        : 1297
Stream size                              : 41.4 KiB (0%)
Title                                    : Tl
Language                                 : Tagalog
Default                                  : No
Forced                                   : No

Text #19
ID                                       : 21
Format                                   : UTF-8
Codec ID                                 : S_TEXT/UTF8
Codec ID/Info                            : UTF-8 Plain Text
Duration                                 : 1 h 25 min
Bit rate                                 : 60 b/s
Count of elements                        : 1303
Stream size                              : 37.8 KiB (0%)
Title                                    : Türk?e
Language                                 : Turkish
Default                                  : No
Forced                                   : No

Text #20
ID                                       : 22
Format                                   : UTF-8
Codec ID                                 : S_TEXT/UTF8
Codec ID/Info                            : UTF-8 Plain Text
Duration                                 : 1 h 25 min
Bit rate                                 : 95 b/s
Count of elements                        : 1287
Stream size                              : 59.9 KiB (0%)
Title                                    : Русский
Language                                 : Russian
Default                                  : No
Forced                                   : No

Text #21
ID                                       : 23
Format                                   : UTF-8
Codec ID                                 : S_TEXT/UTF8
Codec ID/Info                            : UTF-8 Plain Text
Duration                                 : 1 h 25 min
Bit rate                                 : 88 b/s
Count of elements                        : 1305
Stream size                              : 55.7 KiB (0%)
Title                                    : ?????
Language                                 : Hebrew
Default                                  : No
Forced                                   : No

Text #22
ID                                       : 24
Format                                   : UTF-8
Codec ID                                 : S_TEXT/UTF8
Codec ID/Info                            : UTF-8 Plain Text
Duration                                 : 1 h 25 min
Bit rate                                 : 102 b/s
Count of elements                        : 1306
Stream size                              : 64.3 KiB (0%)
Title                                    : ???????
Language                                 : Arabic
Default                                  : No
Forced                                   : No

Text #23
ID                                       : 25
Format                                   : UTF-8
Codec ID                                 : S_TEXT/UTF8
Codec ID/Info                            : UTF-8 Plain Text
Duration                                 : 1 h 25 min
Bit rate                                 : 167 b/s
Count of elements                        : 1304
Stream size                              : 105 KiB (0%)
Title                                    : ??????
Language                                 : Hindi
Default                                  : No
Forced                                   : No

Text #24
ID                                       : 26
Format                                   : UTF-8
Codec ID                                 : S_TEXT/UTF8
Codec ID/Info                            : UTF-8 Plain Text
Duration                                 : 1 h 25 min
Bit rate                                 : 201 b/s
Count of elements                        : 1304
Stream size                              : 127 KiB (0%)
Title                                    : ?????
Language                                 : Tamil
Default                                  : No
Forced                                   : No

Text #25
ID                                       : 27
Format                                   : UTF-8
Codec ID                                 : S_TEXT/UTF8
Codec ID/Info                            : UTF-8 Plain Text
Duration                                 : 1 h 25 min
Bit rate                                 : 173 b/s
Count of elements                        : 1303
Stream size                              : 109 KiB (0%)
Title                                    : ??????
Language                                 : Telugu
Default                                  : No
Forced                                   : No

Text #26
ID                                       : 28
Format                                   : UTF-8
Codec ID                                 : S_TEXT/UTF8
Codec ID/Info                            : UTF-8 Plain Text
Duration                                 : 1 h 25 min
Bit rate                                 : 153 b/s
Count of elements                        : 1304
Stream size                              : 96.4 KiB (0%)
Title                                    : ???
Language                                 : Thai
Default                                  : No
Forced                                   : No

Text #27
ID                                       : 29
Format                                   : UTF-8
Codec ID                                 : S_TEXT/UTF8
Codec ID/Info                            : UTF-8 Plain Text
Duration                                 : 1 h 25 min
Bit rate                                 : 65 b/s
Count of elements                        : 1304
Stream size                              : 41.3 KiB (0%)
Title                                    : 中文(简体)
Language                                 : Chinese
Default                                  : No
Forced                                   : No

Text #28
ID                                       : 30
Format                                   : UTF-8
Codec ID                                 : S_TEXT/UTF8
Codec ID/Info                            : UTF-8 Plain Text
Duration                                 : 1 h 25 min
Bit rate                                 : 58 b/s
Count of elements                        : 1304
Stream size                              : 36.7 KiB (0%)
Title                                    : 中文(繁體)
Language                          &nb

回复

使用道具 举报

小黑屋|百度云资源论坛 |网站地图

本网站所有资源来自网络,如无意中侵犯了您的权益,请发邮件至 [email protected],立即清除相关链接

GMT+8, 2020-9-19 01:35 , Processed in 0.100791 second(s), 20 queries .

Powered by Discuz! X3.2

© 2001-2013 Comsenz Inc.

快速回复 返回顶部 返回列表