百度云资源论坛

 找回密码
 立即注册
搜索

[BD-4K] 独一无二的伊万/独一无二的伊凡 The.One.and.Only.Ivan.2020.HDR.21...

[复制链接]
百度云资源 发表于 2020-8-22 15:52:59 | 显示全部楼层 |阅读模式
帖子完整标题:独一无二的伊万/独一无二的伊凡 The.One.and.Only.Ivan.2020.HDR.2160p.WEB.H265-NOGRP 10.48GB




◎译  名 独一无二的伊万/独一无二的伊凡
◎片  名 The One and Only Ivan
◎年  代 2020
◎产  地 美国
◎类  别 喜剧 / 奇幻 / 冒险
◎语  言 英语
◎上映日期 2020-08-21(美国)
◎导  演 西娅·夏罗克 Thea Sharrock
◎编  剧 麦克·怀特 Mike White / 凯瑟琳·阿普尔盖特 Katherine Applegate
◎主  演 山姆·洛克威尔 Sam Rockwell
       布莱恩·科兰斯顿 Bryan Cranston
       安吉丽娜·朱莉 Angelina Jolie
       丹尼·德维托 Danny DeVito
       布鲁克琳·普林斯 Brooklynn Prince
       海伦·米伦 Helen Mirren
       菲莉帕·苏 Phillipa Soo
       阿丽亚娜·格林布拉特 Ariana Greenblatt
       埃莉诺·松浦 Eleanor Matsuura
       拉蒙·罗德里格兹 Ramon Rodriguez
       奥文·亚瑟 Owain Arthur
       本·毕舍普 Ben Bishop
       戴维娜·西塔拉姆 Davina Sitaram
       杰奎琳·拉姆娜莱恩 Jacqueline Ramnarine
       杰弗里·克里斯普 Jeffrey Crisp
       罗伊·贝克 Roy Beck

◎标  签 迪士尼 | 2020 | 美国 | 动画 | 安吉丽娜朱莉 | SamRockwell | 2019 | 待映

◎简  介

  根据同名获纽伯瑞大奖小说改编,Katherine Applegate写作,Patricia Castelao绘制插图。
  
  聚焦一只名叫Ivan的银背大猩猩,他与名叫Stella的大象和名叫Bob的流浪狗生活在一所大型购物中心的笼子里。Ivan对此前的生活毫无记忆,而当小象Ruby到来后,Ivan将负责照料她,他也开始逐渐想起过去的经历,拟定计划要逃脱牢笼,避免Stella遭受管理员的虐待。
  
  朱莉将为Stella配音,普林斯为Ruby配音。
Video
ID                                       : 1
Format                                   : HEVC
Format/Info                              : High Efficiency Video Coding
HDR format                               : SMPTE ST 2086, HDR10 compatible
Codec ID                                 : V_MPEGH/ISO/HEVC
Duration                                 : 1 h 35 min
Bit rate                                 : 15.5 Mb/s
Width                                    : 3 840 pixels
Height                                   : 2 160 pixels
Display aspect ratio                     : 16:9
Frame rate mode                          : Constant
Frame rate                               : 23.976 (24000/1001/189150) FPS
Color space                              : YUV
Chroma subsampling                       : 4:2:0
Bit depth                                : 10 bits
Bits/(Pixel*Frame)                       : 0.078
Stream size                              : 10.3 GiB (98%)
Default                                  : Yes
Forced                                   : No
Color range                              : Limited
Color primaries                          : BT.2020
Transfer characteristics                 : PQ
Matrix coefficients                      : BT.2020 non-constant
Mastering display color primaries        : Display P3
Mastering display luminance              : min: 0.0001 cd/m2, max: 1000 cd/m2

Audio
ID                                       : 2
Format                                   : E-AC-3
Format/Info                              : Enhanced AC-3
Commercial name                          : Dolby Digital Plus
Codec ID                                 : A_EAC3
Duration                                 : 1 h 35 min
Bit rate mode                            : Constant
Bit rate                                 : 256 kb/s
Channel(s)                               : 6 channels
Channel layout                           : L R C LFE Ls Rs
Sampling rate                            : 48.0 kHz
Frame rate                               : 31.250 FPS (1536 SPF)
Compression mode                         : Lossy
Stream size                              : 174 MiB (2%)
Title                                    : English
Language                                 : English
Service kind                             : Complete Main
Default                                  : No
Forced                                   : No

Text #1
ID                                       : 3
Format                                   : UTF-8
Codec ID                                 : S_TEXT/UTF8
Codec ID/Info                            : UTF-8 Plain Text
Duration                                 : 1 h 28 min
Bit rate                                 : 54 b/s
Count of elements                        : 1199
Stream size                              : 35.3 KiB (0%)
Title                                    : English
Language                                 : English
Default                                  : Yes
Forced                                   : No

Text #2
ID                                       : 4
Format                                   : UTF-8
Codec ID                                 : S_TEXT/UTF8
Codec ID/Info                            : UTF-8 Plain Text
Duration                                 : 1 h 32 min
Bit rate                                 : 50 b/s
Count of elements                        : 1203
Stream size                              : 34.3 KiB (0%)
Title                                    : Danish
Language                                 : Danish
Default                                  : No
Forced                                   : No

Text #3
ID                                       : 5
Format                                   : UTF-8
Codec ID                                 : S_TEXT/UTF8
Codec ID/Info                            : UTF-8 Plain Text
Duration                                 : 1 h 32 min
Bit rate                                 : 46 b/s
Count of elements                        : 906
Stream size                              : 31.7 KiB (0%)
Title                                    : Dutch
Language                                 : Dutch
Default                                  : No
Forced                                   : No

Text #4
ID                                       : 6
Format                                   : UTF-8
Codec ID                                 : S_TEXT/UTF8
Codec ID/Info                            : UTF-8 Plain Text
Duration                                 : 1 h 32 min
Bit rate                                 : 49 b/s
Count of elements                        : 1196
Stream size                              : 33.6 KiB (0%)
Title                                    : Finnish
Language                                 : Finnish
Default                                  : No
Forced                                   : No

Text #5
ID                                       : 7
Format                                   : UTF-8
Codec ID                                 : S_TEXT/UTF8
Codec ID/Info                            : UTF-8 Plain Text
Duration                                 : 1 h 32 min
Bit rate                                 : 53 b/s
Count of elements                        : 1195
Stream size                              : 36.7 KiB (0%)
Title                                    : French
Language                                 : French
Default                                  : No
Forced                                   : No

Text #6
ID                                       : 8
Format                                   : UTF-8
Codec ID                                 : S_TEXT/UTF8
Codec ID/Info                            : UTF-8 Plain Text
Duration                                 : 1 h 32 min
Bit rate                                 : 50 b/s
Count of elements                        : 1141
Stream size                              : 34.3 KiB (0%)
Title                                    : German
Language                                 : German
Default                                  : No
Forced                                   : No

Text #7
ID                                       : 9
Format                                   : UTF-8
Codec ID                                 : S_TEXT/UTF8
Codec ID/Info                            : UTF-8 Plain Text
Duration                                 : 1 h 32 min
Bit rate                                 : 52 b/s
Count of elements                        : 1199
Stream size                              : 35.6 KiB (0%)
Title                                    : Italian
Language                                 : Italian
Default                                  : No
Forced                                   : No

Text #8
ID                                       : 10
Format                                   : UTF-8
Codec ID                                 : S_TEXT/UTF8
Codec ID/Info                            : UTF-8 Plain Text
Duration                                 : 1 h 32 min
Bit rate                                 : 48 b/s
Count of elements                        : 1170
Stream size                              : 32.7 KiB (0%)
Title                                    : Norwegian
Language                                 : Norwegian
Default                                  : No
Forced                                   : No

Text #9
ID                                       : 11
Format                                   : UTF-8
Codec ID                                 : S_TEXT/UTF8
Codec ID/Info                            : UTF-8 Plain Text
Duration                                 : 1 h 32 min
Bit rate                                 : 49 b/s
Count of elements                        : 1195
Stream size                              : 33.5 KiB (0%)
Title                                    : Polish
Language                                 : Polish
Default                                  : No
Forced                                   : No

Text #10
ID                                       : 12
Format                                   : UTF-8
Codec ID                                 : S_TEXT/UTF8
Codec ID/Info                            : UTF-8 Plain Text
Duration                                 : 1 h 32 min
Bit rate                                 : 51 b/s
Count of elements                        : 1198
Stream size                              : 35.3 KiB (0%)
Title                                    : Portuguese
Language                                 : Portuguese
Default                                  : No
Forced                                   : No

Text #11
ID                                       : 13
Format                                   : UTF-8
Codec ID                                 : S_TEXT/UTF8
Codec ID/Info                            : UTF-8 Plain Text
Duration                                 : 1 h 32 min
Bit rate                                 : 51 b/s
Count of elements                        : 1198
Stream size                              : 34.9 KiB (0%)
Title                                    : Brazilian Portuguese
Language                                 : Portuguese
Default                                  : No
Forced                                   : No

Text #12
ID                                       : 14
Format                                   : UTF-8
Codec ID                                 : S_TEXT/UTF8
Codec ID/Info                            : UTF-8 Plain Text
Duration                                 : 1 h 32 min
Bit rate                                 : 52 b/s
Count of elements                        : 1203
Stream size                              : 35.4 KiB (0%)
Title                                    : Spanish
Language                                 : Spanish
Default                                  : No
Forced                                   : No

Text #13
ID                                       : 15
Format                                   : UTF-8
Codec ID                                 : S_TEXT/UTF8
Codec ID/Info                            : UTF-8 Plain Text
Duration                                 : 1 h 32 min
Bit rate                                 : 47 b/s
Count of elements                        : 1192
Stream size                              : 32.4 KiB (0%)
Title                                    : European Spanish
Language                                 : Spanish
Default                                  : No
Forced                                   : No

Text #14
ID                                       : 16
Format                                   : UTF-8
Codec ID                                 : S_TEXT/UTF8
Codec ID/Info                            : UTF-8 Plain Text
Duration                                 : 1 h 32 min
Bit rate                                 : 50 b/s
Count of elements                        : 1013
Stream size                              : 34.3 KiB (0%)
Title                                    : Swedish
Language                                 : Swedish
Default                                  : No
Forced                                   : No



ec7e828ae7f7701987cbb3e95aea3546.zip (53.05 KB, 下载次数: 0)

回复

使用道具 举报

小黑屋|百度云资源论坛 |网站地图

本网站所有资源来自网络,如无意中侵犯了您的权益,请发邮件至 [email protected],立即清除相关链接

GMT+8, 2020-9-21 13:35 , Processed in 0.114015 second(s), 23 queries .

Powered by Discuz! X3.2

© 2001-2013 Comsenz Inc.

快速回复 返回顶部 返回列表