百度云资源论坛

 找回密码
 立即注册
搜索

[BD-4K] 星际传奇 Pitch.Black.2000.DC.2160p.BluRay.x265.10bit.SDR.DTS-HD.MA.5.1-SW...

[复制链接]
百度云资源 发表于 2020-8-19 21:27:35 | 显示全部楼层 |阅读模式
帖子完整标题:星际传奇 Pitch.Black.2000.DC.2160p.BluRay.x265.10bit.SDR.DTS-HD.MA.5.1-SWTYBLZ 46.60GB




◎译  名 星际传奇 / The Chronicles of Riddick: Pitch Black / 漆黑一片 / 黑煞天魔
◎片  名 Pitch Black
◎年  代 2000
◎产  地 美国
◎类  别 动作 / 科幻 / 惊悚
◎语  言 英语 / 阿拉伯语
◎上映日期 2000-02-18
◎IMDb评分  7.1/10 from 222171 users
◎片  长 109 分钟
◎导  演 David Twohy
◎编  剧 Jim Wheat / Ken Wheat / David Twohy
◎主  演 Vin Diesel
       Radha Mitchell
       Cole Hauser
       Keith David
       Lewis Fitz-Gerald


◎标  签 科幻 | 美国 | 动作 | 惊悚 | 文·迪塞尔 | 星际传奇 | 2000 | 美国电影

◎简  介   

  在浩瀚的宇宙间,一艘名为猎人号的商用飞船正进行着漫长的旅程。船上搭载着40位乘客,其中包括重刑罪犯理查·雷迪克(Vin Diesel 饰)。当行驶到丹吉尔星系时,突如其来的事故令飞船遭受重创,空气飞速泄漏,最终迫降到一颗炎热而荒凉的星球上。着陆时的巨大冲击力几乎让飞船支离破碎,死伤者众多。幸存者们来到这片陌生的国土,严酷的自然环境考验着每一个人,不同民族不同职业的他们此时必须捐弃前嫌,联合起来。他们不仅要与天空中三个太阳作抗争,还要时刻提防隐藏在黑暗中的危险……
  本片荣获2001年澳大利亚摄影师协会年度最佳摄影师和金三角架奖。
Video
ID                                       : 1
Format                                   : HEVC
Format/Info                              : High Efficiency Video Coding
Codec ID                                 : V_MPEGH/ISO/HEVC
Duration                                 : 1 h 51 min
Bit rate                                 : 54.6 Mb/s
Width                                    : 3 840 pixels
Height                                   : 1 632 pixels
Display aspect ratio                     : 2.35:1
Frame rate mode                          : Constant
Frame rate                               : 24.000 FPS
Color space                              : YUV
Chroma subsampling                       : 4:2:0
Bit depth                                : 10 bits
Bits/(Pixel*Frame)                       : 0.363
Stream size                              : 42.6 GiB (92%)
Title                                    : Pitch.Black.2000.DC.2160p.BluRay.x265.10bit.SDR.DTS-HD.MA.5.1-SWTYBLZ
Writing library                          : x265 3.0ed72af837053:[Windows][GCC 8.2.0][64 bit] 10bit
Encoding settings                        : cpuid=1111039 / frame-threads=6 / numa-pools=40 / wpp / no-pmode / no-pme / no-psnr / no-ssim / log-level=2 / input-csp=1 / input-res=3840x1632 / interlace=0 / total-frames=160937 / level-idc=51 / high-tier=1 / uhd-bd=0 / ref=3 / no-allow-non-conformance / repeat-headers / annexb / aud / hrd / info / hash=0 / no-temporal-layers / no-open-gop / min-keyint=1 / keyint=24 / gop-lookahead=0 / bframes=4 / b-adapt=2 / b-pyramid / bframe-bias=0 / rc-lookahead=25 / lookahead-slices=4 / scenecut=40 / radl=0 / no-splice / no-intra-refresh / ctu=64 / min-cu-size=8 / no-rect / no-amp / max-tu-size=32 / tu-inter-depth=1 / tu-intra-depth=1 / limit-tu=0 / rdoq-level=0 / dynamic-rd=0.00 / no-ssim-rd / signhide / no-tskip / nr-intra=0 / nr-inter=0 / no-constrained-intra / strong-intra-smoothing / max-merge=2 / limit-refs=3 / no-limit-modes / me=1 / subme=2 / merange=57 / temporal-mvp / weightp / no-weightb / no-analyze-src-pics / deblock=0:0 / no-sao / no-sao-non-deblock / rd=3 / no-early-skip / rskip / no-fast-intra / no-tskip-fast / no-cu-lossless / no-b-intra / no-splitrd-skip / rdpenalty=0 / psy-rd=2.00 / psy-rdoq=0.00 / no-rd-refine / no-lossless / cbqpoffs=0 / crqpoffs=0 / rc=crf / crf=16.0 / qcomp=0.60 / qpstep=4 / stats-write=0 / stats-read=0 / vbv-maxrate=160000 / vbv-bufsize=160000 / vbv-init=0.9 / crf-max=0.0 / crf-min=0.0 / ipratio=1.40 / pbratio=1.30 / aq-mode=1 / aq-strength=1.00 / cutree / zone-count=0 / no-strict-cbr / qg-size=32 / no-rc-grain / qpmax=69 / qpmin=0 / no-const-vbv / sar=1 / overscan=0 / videoformat=5 / range=0 / colorprim=2 / transfer=2 / colormatrix=2 / chromaloc=0 / display-window=0 / max-cll=0,0 / min-luma=0 / max-luma=1023 / log2-max-poc-lsb=8 / vui-timing-info / vui-hrd-info / slices=1 / opt-qp-pps / opt-ref-list-length-pps / no-multi-pass-opt-rps / scenecut-bias=0.05 / no-opt-cu-delta-qp / no-aq-motion / no-hdr / no-hdr-opt / no-dhdr10-opt / no-idr-recovery-sei / analysis-reuse-level=5 / scale-factor=0 / refine-intra=0 / refine-inter=0 / refine-mv=0 / refine-ctu-distortion=0 / no-limit-sao / ctu-info=0 / no-lowpass-dct / refine-analysis-type=0 / copy-pic=1 / max-ausize-factor=1.0 / no-dynamic-refine / no-single-sei / no-hevc-aq / qp-adaptation-range=1.00
Language                                 : English
Default                                  : Yes
Forced                                   : No

Audio #1
ID                                       : 2
ID in the original source medium         : 4352 (0x1100)
Format                                   : DTS XLL
Format/Info                              : Digital Theater Systems
Commercial name                          : DTS-HD Master Audio
Codec ID                                 : A_DTS
Duration                                 : 1 h 51 min
Bit rate mode                            : Variable
Bit rate                                 : 4 158 kb/s
Channel(s)                               : 6 channels
Channel layout                           : C L R Ls Rs LFE
Sampling rate                            : 48.0 kHz
Frame rate                               : 93.750 FPS (512 SPF)
Bit depth                                : 24 bits
Compression mode                         : Lossless
Stream size                              : 3.25 GiB (7%)
Title                                    : Pitch.Black.2000.DC.2160p.BluRay.x265.10bit.SDR.DTS-HD.MA.5.1-SWTYBLZ
Language                                 : English
Default                                  : Yes
Forced                                   : No
Original source medium                   : Blu-ray

Audio #2
ID                                       : 3
Format                                   : AC-3
Format/Info                              : Audio Coding 3
Commercial name                          : Dolby Digital
Codec ID                                 : A_AC3
Duration                                 : 1 h 51 min
Bit rate mode                            : Constant
Bit rate                                 : 640 kb/s
Channel(s)                               : 6 channels
Channel layout                           : L R C LFE Ls Rs
Sampling rate                            : 48.0 kHz
Frame rate                               : 31.250 FPS (1536 SPF)
Compression mode                         : Lossy
Stream size                              : 512 MiB (1%)
Title                                    : Pitch.Black.2000.DC.2160p.BluRay.x265.10bit.SDR.DTS-HD.MA.5.1-SWTYBLZ
Language                                 : English
Service kind                             : Complete Main
Default                                  : No
Forced                                   : No

Text #1
ID                                       : 4
Format                                   : UTF-8
Codec ID                                 : S_TEXT/UTF8
Codec ID/Info                            : UTF-8 Plain Text
Duration                                 : 1 h 44 min
Bit rate                                 : 37 b/s
Count of elements                        : 949
Stream size                              : 29.0 KiB (0%)
Title                                    : English-SRT
Language                                 : English
Default                                  : Yes
Forced                                   : No

Text #2
ID                                       : 5
Format                                   : UTF-8
Codec ID                                 : S_TEXT/UTF8
Codec ID/Info                            : UTF-8 Plain Text
Duration                                 : 1 h 44 min
Bit rate                                 : 41 b/s
Count of elements                        : 1123
Stream size                              : 31.8 KiB (0%)
Title                                    : English-SDH-SRT
Language                                 : English
Default                                  : No
Forced                                   : No

Text #3
ID                                       : 6
ID in the original source medium         : 4768 (0x12A0)
Format                                   : PGS
Muxing mode                              : zlib
Codec ID                                 : S_HDMV/PGS
Codec ID/Info                            : Picture based subtitle format used on BDs/HD-DVDs
Duration                                 : 1 h 44 min
Bit rate                                 : 27.8 kb/s
Count of elements                        : 2246
Stream size                              : 20.8 MiB (0%)
Title                                    : English-PGS
Language                                 : English
Default                                  : No
Forced                                   : No
Original source medium                   : Blu-ray

Menu
00:00:00.000                             : en:Chapter 01
00:11:13.500                             : en:Chapter 02
00:18:27.458                             : en:Chapter 03
00:27:09.708                             : en:Chapter 04
00:36:45.416                             : en:Chapter 05
00:46:36.458                             : en:Chapter 06
00:56:13.625                             : en:Chapter 07
01:02:39.666                             : en:Chapter 08
01:12:17.333                             : en:Chapter 09
01:19:15.375                             : en:Chapter 10
01:33:36.750                             : en:Chapter 11
01:39:17.791                             : en:Chapter 12





97ab06992c0ba33796350f1ae85addbe.zip (118.06 KB, 下载次数: 0)

回复

使用道具 举报

小黑屋|百度云资源论坛 |网站地图

本网站所有资源来自网络,如无意中侵犯了您的权益,请发邮件至 [email protected],立即清除相关链接

GMT+8, 2020-9-19 00:12 , Processed in 0.101401 second(s), 23 queries .

Powered by Discuz! X3.2

© 2001-2013 Comsenz Inc.

快速回复 返回顶部 返回列表