百度云资源论坛

 找回密码
 立即注册
搜索

The Wild Goose Lake/野鹅塘 The.Wild.Goose.Lake.2019.720p.BluRay.x264-MiCiU...

[复制链接]
百度云资源 发表于 2020-8-16 07:12:25 | 显示全部楼层 |阅读模式
帖子完整标题:The Wild Goose Lake/野鹅塘 The.Wild.Goose.Lake.2019.720p.BluRay.x264-MiCiUS 7.16GB




◎译  名 The Wild Goose Lake / 野鹅塘 / 野鹅湖
◎片  名 南方车站的聚会
◎年  代 2019
◎产  地 中国大陆 / 法国
◎类  别 剧情 / 犯罪
◎语  言 武汉方言
◎上映日期 2019-05-18(戛纳电影节) / 2019-12-06(中国大陆)
◎片  长 113分钟
◎导  演 刁亦男 Yi'nan Diao
◎编  剧 刁亦男 Yi'nan Diao
◎主  演 胡歌 Ge Hu
       桂纶镁 Lunmei Gwei
       廖凡 Fan Liao
       万茜 Qian Wan
       奇道 Dao Qi
       黄觉 Jue Huang
       曾美慧孜 Meihuizi Zeng
       张奕聪 Yicong Zhang
       陈永忠 Yongzhong Chen
       李志鹏
       刘畅
       常嘉豪
       常嘉壮
       陈子杰
       邱文洋 Wenyang Qiu
       汤青松
       付小仙 Xiaoxian Fu


◎标  签 胡歌 | 犯罪 | 桂纶镁 | 刁亦男 | 值得一看 | 中国大陆 | 廖凡 | 剧情

◎简  介   

  南方某城市,重案队长刘队(廖凡 饰)重金悬赏在逃罪犯周泽农(胡歌 饰)。陪泳女刘爱爱(桂纶镁 饰) 、周泽农曾经的好友华华(奇道 饰)、五年未见的妻子杨淑俊(万茜 饰),各色人等各怀心事,相继被卷入这场罪与罚的追击旋涡。冒险与爱情,人性与救赎,这场特别的“聚会”该如何收场?善恶有道一念之间。
  中国导演刁亦男曾凭借前作《白日焰火》获第 64届柏林国际电影节最佳影片金熊奖,凭本片入围第 72届戛纳国际电影节主竞赛单元。

◎获奖情况  

  第72届戛纳电影节(2019)
  主竞赛单元 金棕榈奖(提名) 刁亦男
Video
ID                                       : 1
Format                                   : AVC
Format/Info                              : Advanced Video Codec
Format settings                          : CABAC / 8 Ref Frames
Format settings, CABAC                   : Yes
Format settings, Reference frames        : 8 frames
Codec ID                                 : V_MPEG4/ISO/AVC
Duration                                 : 1 h 51 min
Bit rate                                 : 8 576 kb/s
Width                                    : 1 280 pixels
Height                                   : 674 pixels
Display aspect ratio                     : 1.899
Frame rate mode                          : Constant
Frame rate                               : 23.976 (24000/1001/189150) FPS
Color space                              : YUV
Chroma subsampling                       : 4:2:0
Bit depth                                : 8 bits
Scan type                                : Progressive
Bits/(Pixel*Frame)                       : 0.415
Stream size                              : 6.65 GiB (93%)
Writing library                          : x264 core 161 r3018 db0d417
Encoding settings                        : cabac=1 / ref=8 / deblock=1:-3:-3 / analyse=0x3:0x133 / me=umh / subme=9 / psy=1 / psy_rd=1.00:0.00 / mixed_ref=1 / me_range=24 / chroma_me=1 / trellis=2 / 8x8dct=1 / cqm=0 / deadzone=21,11 / fast_pskip=0 / chroma_qp_offset=-2 / threads=9 / lookahead_threads=1 / sliced_threads=0 / nr=0 / decimate=0 / interlaced=0 / bluray_compat=0 / constrained_intra=0 / bframes=5 / b_pyramid=2 / b_adapt=2 / b_bias=0 / direct=3 / weightb=1 / open_gop=0 / weightp=2 / keyint=240 / keyint_min=23 / scenecut=40 / intra_refresh=0 / rc_lookahead=60 / rc=crf / mbtree=0 / crf=17.0 / qcomp=0.60 / qpmin=0 / qpmax=69 / qpstep=4 / vbv_maxrate=62500 / vbv_bufsize=78125 / crf_max=0.0 / nal_hrd=none / filler=0 / ip_ratio=1.40 / pb_ratio=1.30 / aq=3:0.75
Default                                  : Yes
Forced                                   : No

Audio
ID                                       : 2
Format                                   : AC-3
Format/Info                              : Audio Coding 3
Commercial name                          : Dolby Digital
Codec ID                                 : A_AC3
Duration                                 : 1 h 50 min
Bit rate mode                            : Constant
Bit rate                                 : 640 kb/s
Channel(s)                               : 6 channels
Channel layout                           : L R C LFE Ls Rs
Sampling rate                            : 48.0 kHz
Frame rate                               : 31.250 FPS (1536 SPF)
Bit depth                                : 16 bits
Compression mode                         : Lossy
Stream size                              : 508 MiB (7%)
Language                                 : Chinese
Service kind                             : Complete Main
Default                                  : Yes
Forced                                   : No

Text #1
ID                                       : 3
Format                                   : PGS
Muxing mode                              : zlib
Codec ID                                 : S_HDMV/PGS
Codec ID/Info                            : Picture based subtitle format used on BDs/HD-DVDs
Duration                                 : 1 h 42 min
Bit rate                                 : 19.3 kb/s
Count of elements                        : 1454
Stream size                              : 14.1 MiB (0%)
Language                                 : English
Default                                  : No
Forced                                   : No

Text #2
ID                                       : 4
Format                                   : PGS
Muxing mode                              : zlib
Codec ID                                 : S_HDMV/PGS
Codec ID/Info                            : Picture based subtitle format used on BDs/HD-DVDs
Duration                                 : 1 h 48 min
Bit rate                                 : 19.3 kb/s
Count of elements                        : 1374
Stream size                              : 15.0 MiB (0%)
Language                                 : French
Default                                  : No
Forced                                   : No

Text #3
ID                                       : 5
Format                                   : PGS
Muxing mode                              : zlib
Codec ID                                 : S_HDMV/PGS
Codec ID/Info                            : Picture based subtitle format used on BDs/HD-DVDs
Duration                                 : 1 h 41 min
Bit rate                                 : 16.3 kb/s
Count of elements                        : 1598
Stream size                              : 11.9 MiB (0%)
Title                                    : Simplified Chinese
Language                                 : Chinese
Default                                  : No
Forced                                   : No

Text #4
ID                                       : 6
Format                                   : UTF-8
Codec ID                                 : S_TEXT/UTF8
Codec ID/Info                            : UTF-8 Plain Text
Duration                                 : 1 h 42 min
Bit rate                                 : 23 b/s
Count of elements                        : 727
Stream size                              : 17.4 KiB (0%)
Language                                 : English
Default                                  : Yes
Forced                                   : Yes

Text #5
ID                                       : 7
Format                                   : UTF-8
Codec ID                                 : S_TEXT/UTF8
Codec ID/Info                            : UTF-8 Plain Text
Duration                                 : 1 h 48 min
Bit rate                                 : 24 b/s
Count of elements                        : 686
Stream size                              : 19.6 KiB (0%)
Language                                 : French
Default                                  : No
Forced                                   : No

Text #6
ID                                       : 8
Format                                   : UTF-8
Codec ID                                 : S_TEXT/UTF8
Codec ID/Info                            : UTF-8 Plain Text
Duration                                 : 1 h 41 min
Bit rate                                 : 22 b/s
Count of elements                        : 799
Stream size                              : 16.7 KiB (0%)
Title                                    : Simplified Chinese
Language                                 : Chinese
Default                                  : No
Forced                                   : No

Menu
00:00:00.000                             : :Chapter 01
00:07:46.383                             : :Chapter 02
00:19:04.643                             : :Chapter 03
00:28:10.272                             : :Chapter 04
00:40:06.863                             : :Chapter 05
00:49:10.197                             : :Chapter 06
00:58:29.589                             : :Chapter 07
01:06:54.802                             : :Chapter 08
01:16:12.026                             : :Chapter 09
01:24:07.876                             : :Chapter 10
01:32:02.350                             : :Chapter 11
01:48:18.701                             : :Chapter 12





d24e3177f4aaf1c1035a338989cb8fe3.zip (37.33 KB, 下载次数: 0)

回复

使用道具 举报

小黑屋|百度云资源论坛 |网站地图

本网站所有资源来自网络,如无意中侵犯了您的权益,请发邮件至 [email protected],立即清除相关链接

GMT+8, 2020-12-4 03:29 , Processed in 0.104501 second(s), 23 queries .

Powered by Discuz! X3.2

© 2001-2013 Comsenz Inc.

快速回复 返回顶部 返回列表