百度云资源论坛

 找回密码
 立即注册
搜索

[BT下载]杀戮旅店.Cold Blooded Beast.1971.IT.BluRay.1920x832p.x264.AC3-K...

[复制链接]
百度云资源 发表于 2019-6-16 09:11:20 | 显示全部楼层 |阅读模式
[BT下载]杀戮旅店.Cold Blooded Beast.1971.IT.BluRay.1920x832p.x264.AC3-KOOK.[中英双字] 6.57GB





无广告,无水印,欢迎转载
原创翻译 独家中英双字幕
不定时做种,保证出种,请耐心等待.


※※※※※※※ 影片信息 ※※※※※※※


◎片   名 La bestia uccide a sangue freddo
◎译   名 杀戮旅店 / The Beast Kills in Cold Blood / Slaughter Hotel
◎年   代 1971
◎国   家 意大利
◎类   别 悬疑 / 惊悚 / 恐怖 / 锖色
◎语   言 英语
◎上映日 期 1971-08-02(意大利)
◎字   幕 中英字幕/英中字幕/简体字幕/繁体字幕/英文字幕
◎IMDB 评分  5.1/10 from 1190 users
◎视频尺 寸  1920x832p
◎片   长 1.36.41
◎导   演 费尔南多·迪·莱沃
◎主   演 克劳斯·金斯基 / Margaret Lee / 欧露莎尔芭·奈丽


#430



◎简  介


  
一个戴斗篷的人溜进了一家专门的精神科诊所,谋杀了一名女病人。同时,各种性关系也被揭示出来。神秘杀手继续他的大屠杀:他用镰刀斩首一名护士,把司机推到一个有尖刺的“铁娘子”,勒死一名年长的女病人,用斧头杀死一名色情狂,用十字弓射杀一名女同性恋。克莱医生和警方设下了一个陷阱,用一个漂亮的女病人作为诱饵。然而,他们并没有准备好迎接接下来要发生的…












※※※※※※※ 参数信息 ※※※※※※※






General
Unique ID                      : 220700536697974351263125454234820927037 (0xA609609298E4633FB91F424FA92DDE3D)


Format                         : Matroska
Format version                 : Version 4 / Version 2
File size                      : 6.58 GiB
Duration                       : 1h 36mn
Overall bit rate               : 9 740 Kbps
Movie name                     : KOOK
Encoded date                   : UTC 2019-06-11 14:03:36
Writing application            : mkvmerge v7.7.0 ('Six Voices') 32bit built on Feb 28 2015 23:23:00
Writing library                : libebml v1.3.1 + libmatroska v1.4.2
Attachements                   : p2518168630.jpg / STKAITI.TTF / fzgljw.ttf


Video
ID                             : 1
Format                         : AVC
Format/Info                    : Advanced Video Codec
Format settings, CABAC         : Yes
Format settings, ReFrames      : 5 frames
Codec ID                       : V_MPEG4/ISO/AVC
Duration                       : 1h 36mn
Bit rate                       : 9 070 Kbps
Width                          : 1 920 pixels
Height                         : 832 pixels
Display aspect ratio           : 2.35:1
Frame rate mode                : Constant
Frame rate                     : 23.976 (24000/1001) fps
Color space                    : YUV
Chroma subsampling             : 4:2:0
Bit depth                      : 8 bits
Scan type                      : Progressive
Bits/(Pixel*Frame)             : 0.237
Stream size                    : 6.13 GiB (93%)
Writing library                : x264 core 152 r2851kMod ba24899
Encoding settings              : cabac=1 / ref=5 / deblock=1:-3:-3 / analyse=0x3:0x133 / me=umh / subme=8 / psy=1 / fade_compensate=0.00 / psy_rd=1.00:0.00 / mixed_ref=1 / me_range=16 / chroma_me=1 / trellis=1 / 8x8dct=1 / cqm=0 / deadzone=21,11 / fast_pskip=0 / chroma_qp_offset=-2 / threads=6 / lookahead_threads=1 / sliced_threads=0 / nr=0 / decimate=1 / interlaced=0 / bluray_compat=0 / constrained_intra=0 / bframes=3 / b_pyramid=2 / b_adapt=1 / b_bias=0 / direct=3 / weightb=1 / open_gop=0 / weightp=2 / keyint=250 / keyint_min=23 / scenecut=40 / intra_refresh=0 / rc_lookahead=50 / rc=2pass / mbtree=1 / bitrate=9070 / ratetol=1.0 / qcomp=0.60 / qpmin=0 / qpmax=69 / qpstep=4 / cplxblur=20.0 / qblur=0.5 / vbv_maxrate=62500 / vbv_bufsize=78125 / nal_hrd=none / filler=0 / ip_ratio=1.40 / aq=1:1.00
Default                        : Yes
Forced                         : No


Audio
ID                             : 2
Format                         : AC-3
Format/Info                    : Audio Coding 3
Mode extension                 : CM (complete main)
Format settings, Endianness    : Big
Codec ID                       : A_AC3
Duration                       : 1h 36mn
Bit rate mode                  : Constant
Bit rate                       : 640 Kbps
Channel(s)                     : 2 channels
Channel positions              : Front: L R
Sampling rate                  : 48.0 KHz
Frame rate                     : 31.250 fps (1536 spf)
Compression mode               : Lossy
Stream size                    : 443 MiB (7%)
Language                       : English
Default                        : Yes
Forced                         : No


Text #1
ID                             : 3
Format                         : ASS
Codec ID                       : S_TEXT/ASS
Codec ID/Info                  : Advanced Sub Station Alpha
Duration                       : 1h 36mn
Bit rate                       : 115 bps
Count of elements              : 567
Compression mode               : Lossless
Stream size                    : 81.7 KiB (0%)
Title                          : 中英字幕
Language                       : Chinese
Default                        : Yes
Forced                         : No


Text #2
ID                             : 4
Format                         : ASS
Codec ID                       : S_TEXT/ASS
Codec ID/Info                  : Advanced Sub Station Alpha
Duration                       : 1h 36mn
Bit rate                       : 175 bps
Count of elements              : 567
Compression mode               : Lossless
Stream size                    : 124 KiB (0%)
Title                          : 英中字幕
Language                       : English
Default                        : No
Forced                         : No


Text #3
ID                             : 5
Format                         : ASS
Codec ID                       : S_TEXT/ASS
Codec ID/Info                  : Advanced Sub Station Alpha
Duration                       : 1h 36mn
Bit rate                       : 52 bps
Count of elements              : 567
Compression mode               : Lossless
Stream size                    : 37.3 KiB (0%)
Title                          : 简体字幕
Language                       : Chinese
Default                        : No
Forced                         : No


Text #4
ID                             : 6
Format                         : ASS
Codec ID                       : S_TEXT/ASS
Codec ID/Info                  : Advanced Sub Station Alpha
Duration                       : 1h 36mn
Bit rate                       : 52 bps
Count of elements              : 567
Compression mode               : Lossless
Stream size                    : 37.3 KiB (0%)
Title                          : 繁体字幕
Language                       : Chinese
Default                        : No
Forced                         : No


Text #5
ID                             : 7
Format                         : ASS
Codec ID                       : S_TEXT/ASS
Codec ID/Info                  : Advanced Sub Station Alpha
Duration                       : 1h 36mn
Bit rate                       : 86 bps
Count of elements              : 567
Compression mode               : Lossless
Stream size                    : 61.4 KiB (0%)
Title                          : 英文字幕
Language                       : English
Default                        : No
Forced                         : No


Menu
00:00:00.000                   : en:00:00:00.000
00:09:29.277                   : en:00:09:29.277
00:21:06.223                   : en:00:21:06.223
00:34:46.334                   : en:00:34:46.334
00:48:19.480                   : en:00:48:19.480
01:01:05.287                   : en:01:01:05.287
01:14:02.938                   : en:01:14:02.938
01:27:36.835                   : en:01:27:36.835

                                                                                                                                                                                                        
                                                                                                                                                                                                                                                                                                                                                                                                                                                                                                                                                                                                                                                                                                                                                                                                                                                        
a9e765009e6e85ae26eceb74337fc8f2.torrent (136.2 KB, 下载次数: 0)

回复

使用道具 举报

小黑屋|百度云资源论坛 |网站地图

本网站所有资源来自网络,如无意中侵犯了您的权益,请发邮件至 aa635343@outlook.com,立即清除相关链接

GMT+8, 2019-10-15 02:15 , Processed in 0.090586 second(s), 28 queries .

Powered by Discuz! X3.2

© 2001-2013 Comsenz Inc.

快速回复 返回顶部 返回列表