百度云资源论坛

 找回密码
 立即注册
搜索

[剧情片] 精英部队2:大敌当前 Elite.Squad.2.2010.SUBBED.1080p.BluRay.x264-SONiDO 7.64GB ... ...

[复制链接]
电影首发 发表于 2015-11-12 09:07:00 | 显示全部楼层 |阅读模式

译  名 精英部队2:大敌当前/精英部队2/精锐部队2/菁英部队2
片  名 Tropa de Elite 2 - O Inimigo Agora É Outro
年  代 2010
国  家 巴西
类  别 剧情/动作/犯罪/惊悚
语  言 葡萄牙语
上映日期 2010-10-08(巴西)/2011-11-25(中国大陆)
片  长 115分钟(巴西)/95分钟(中国大陆)
导  演 若泽·帕迪里亚 José Padilha
主  演 瓦格纳·马拉 Wagner Moura
      安德烈•拉米罗 André Ramiro
      米尔黑·考塔兹 Milhem Cortaz
      伊兰迪尔·桑托斯 Irandhir Santos
      马瑞·瑞彼欧 Maria Ribeiro
      索·豪黑 Seu Jorge


简  介


  4年前,臭名昭著的拉西欧监狱发生了一场暴动,这一事件引起里约热内卢州社会的广泛争论,也不同程度改变了许多人的命运。直接领导精英部队(BOPE)的罗伯特·纳西贝托中校(Wagner Moura 饰)由此荣升为安全局的副秘书长,拥有更大的施展空间;而他的爱将安德鲁·马蒂亚斯(André Ramiro 饰)被政客当作替罪羔羊,踢出了BOPE部队。当然,纳西贝托也遭受着来自政坛、战友和家人各方面的压力,他将一腔愤懑转化到工作中,不仅扩编强化了BOPE的实力,还通过一次次铁腕的打击荡涤了贫民区毒贩的罪恶势力。
  毒贩销声匿迹,黑暗的阴霾却未散去。以罗卡(Sandro Rocha 饰)等人为首的腐败警察势力进入贫民窟,他们欺行霸市,官匪勾结,成为里约州另一个难以祛除的顽疾……


Video
ID                                       : 1
Format                                   : AVC
Format/Info                              : Advanced Video Codec
Format profile                           : [email protected]
Format settings, CABAC                   : Yes
Format settings, ReFrames                : 4 frames
Codec ID                                 : V_MPEG4/ISO/AVC
Duration                                 : 1h 54mn
Bit rate                                 : 8 760 Kbps
Width                                    : 1 920 pixels
Height                                   : 1 040 pixels
Display aspect ratio                     : 1.85:1
Frame rate mode                          : Constant
Frame rate                               : 23.976 fps
Color space                              : YUV
Chroma subsampling                       : 4:2:0
Bit depth                                : 8 bits
Scan type                                : Progressive
Bits/(Pixel*Frame)                       : 0.183
Stream size                              : 6.87 GiB (90%)
Writing library                          : x264 core 120 r2120 0c7dab9
Encoding settings                        : cabac=1 / ref=4 / deblock=1:0:0 / analyse=0x3:0x133 / me=umh / subme=7 / psy=1 / psy_rd=1.00:0.00 / mixed_ref=1 / me_range=16 / chroma_me=1 / trellis=1 / 8x8dct=1 / cqm=0 / deadzone=21,11 / fast_pskip=0 / chroma_qp_offset=-2 / threads=12 / sliced_threads=0 / nr=0 / decimate=1 / interlaced=0 / bluray_compat=0 / constrained_intra=0 / bframes=3 / b_pyramid=2 / b_adapt=2 / b_bias=0 / direct=3 / weightb=1 / open_gop=0 / weightp=2 / keyint=250 / keyint_min=23 / scenecut=40 / intra_refresh=0 / rc_lookahead=50 / rc=2pass / mbtree=1 / bitrate=8760 / ratetol=1.0 / qcomp=0.60 / qpmin=0 / qpmax=69 / qpstep=4 / cplxblur=20.0 / qblur=0.5 / ip_ratio=1.40 / aq=1:1.00
Language                                 : English
Default                                  : Yes
Forced                                   : No

Audio
ID                                       : 2
Format                                   : DTS
Format/Info                              : Digital Theater Systems
Mode                                     : 16
Format settings, Endianness              : Big
Codec ID                                 : A_DTS
Duration                                 : 1h 54mn
Bit rate mode                            : Constant
Bit rate                                 : 768 Kbps
Channel(s)                               : 6 channels
Channel positions                        : Front: L C R, Side: L R, LFE
Sampling rate                            : 48.0 KHz
Bit depth                                : 24 bits
Compression mode                         : Lossy
Stream size                              : 631 MiB (8%)
Language                                 : Portuguese
Default                                  : Yes
Forced                                   : No





                                                                                                                                                                                                       

                                                                                                                       
                                                                                                                                                                                                                                                        Elite.Squad.2.2010.SUBBED.1080p.BluRay.x264-SONiDO.torrent (76.96 KB, 下载次数: 0)

回复

使用道具 举报

小黑屋|百度云资源论坛 |网站地图

本网站所有资源来自网络,如无意中侵犯了您的权益,请发邮件至 [email protected],立即清除相关链接

GMT+8, 2020-10-1 23:39 , Processed in 0.112033 second(s), 23 queries .

Powered by Discuz! X3.2

© 2001-2013 Comsenz Inc.

快速回复 返回顶部 返回列表