百度云资源论坛

 找回密码
 立即注册
搜索

骗局/唐·麦凯 Don.McKay.2009.720p.BluRay.x264.DTS-FGT 4.37GB

[复制链接]
电影首发 发表于 2015-11-10 08:45:00 | 显示全部楼层 |阅读模式

译  名 骗局/唐·麦凯
片  名 Don McKay
年  代 2009
国  家 美国
类  别 剧情/惊悚/悬疑
语  言 英语
上映日期 2009
片  长 87 分钟
导  演 杰克·哥德博尔格 Jake Goldberger
主  演 托马斯·哈登·丘奇 Thomas Haden Church
      伊丽莎白·苏 Elisabeth Shue
      梅丽莎·里奥 Melissa Leo
      M·埃梅特·沃尔什 M. Emmet Walsh
      凯斯·大卫 Keith David
      詹姆斯·瑞布霍恩 James Rebhorn
      普路特·泰勒·文斯 Pruitt Taylor Vince


简  介


  唐·麦凯是一所中学的看门人,在一场悲剧后背井离乡。25年后,当他回到家乡时,又与老情人重新燃起了爱火,只是,老情人此时正遭受癌症的折磨,但不管怎么说,这次回家带给唐·麦凯的要比希望的多……一个略带惊悚意味的爱情故事,情节基调微微伤感,却在伤感中蕴藏着深厚的情感爆发力。影片的三位主演均为好莱坞的奥斯卡级人物,托马斯·哈登·丘奇曾凭借《杯酒人生》获得奥斯卡最佳男配角提名,伊丽莎白·苏和梅丽莎·里奥则分别凭借《远离赌城》和《冰冻之河》获得奥斯卡最佳女主角提名。




Video
ID                                       : 1
Format                                   : AVC
Format/Info                              : Advanced Video Codec
Format profile                           : [email protected]
Format settings, CABAC                   : Yes
Format settings, ReFrames                : 5 frames
Codec ID                                 : V_MPEG4/ISO/AVC
Duration                                 : 1h 29mn
Bit rate                                 : 5 447 Kbps
Width                                    : 1 280 pixels
Height                                   : 720 pixels
Display aspect ratio                     : 16:9
Frame rate mode                          : Constant
Frame rate                               : 23.976 fps
Color space                              : YUV
Chroma subsampling                       : 4:2:0
Bit depth                                : 8 bits
Scan type                                : Progressive
Bits/(Pixel*Frame)                       : 0.247
Stream size                              : 3.33 GiB (76%)
Writing library                          : x264 core 98 r1649 c54c47d
Encoding settings                        : cabac=1 / ref=5 / deblock=1:0:0 / analyse=0x3:0x113 / me=umh / subme=7 / psy=1 / psy_rd=1.00:0.00 / mixed_ref=1 / me_range=16 / chroma_me=1 / trellis=1 / 8x8dct=1 / cqm=0 / deadzone=21,11 / fast_pskip=0 / chroma_qp_offset=-2 / threads=12 / sliced_threads=0 / nr=0 / decimate=1 / interlaced=0 / constrained_intra=0 / bframes=3 / b_pyramid=2 / b_adapt=1 / b_bias=0 / direct=1 / weightb=1 / weightp=2 / keyint=250 / keyint_min=25 / scenecut=40 / intra_refresh=0 / rc_lookahead=40 / rc=2pass / mbtree=1 / bitrate=5447 / ratetol=1.0 / qcomp=0.60 / qpmin=10 / qpmax=51 / qpstep=4 / cplxblur=20.0 / qblur=0.5 / ip_ratio=1.40 / aq=1:1.00
Language                                 : English
Default                                  : Yes
Forced                                   : No

Audio
ID                                       : 2
Format                                   : DTS
Format/Info                              : Digital Theater Systems
Mode                                     : 16
Format settings, Endianness              : Big
Codec ID                                 : A_DTS
Duration                                 : 1h 29mn
Bit rate mode                            : Constant
Bit rate                                 : 1 509 Kbps
Channel(s)                               : 6 channels
Channel positions                        : Front: L C R, Side: L R, LFE
Sampling rate                            : 48.0 KHz
Bit depth                                : 24 bits
Compression mode                         : Lossy
Stream size                              : 971 MiB (22%)
Language                                 : English
Default                                  : Yes
Forced                                   : No

Text
ID                                       : 3
Format                                   : UTF-8
Codec ID                                 : S_TEXT/UTF8
Codec ID/Info                            : UTF-8 Plain Text
Language                                 : English
Default                                  : No
Forced                                   : No





                                                                                                                                                                                                       

                                                                                                                       
                                                                                                                                                                                                                                                        Don.McKay.2009.720p.BluRay.x264.DTS-FGT.torrent (87.99 KB, 下载次数: 0)

回复

使用道具 举报

小黑屋|百度云资源论坛

本网站所有资源来自网络,如无意中侵犯了您的权益,请发邮件至 [email protected],立即清除相关链接

GMT+8, 2022-10-4 13:55 , Processed in 0.074867 second(s), 26 queries .

Powered by Discuz! X3.2

© 2001-2013 Comsenz Inc.

快速回复 返回顶部 返回列表