百度云资源论坛

 找回密码
 立即注册
搜索

[动作片] 突击女孩 Assault.Girls.2009.1080p.BluRay.x264-aAF 5.47GB

[复制链接]
电影首发 发表于 2015-11-10 08:40:00 | 显示全部楼层 |阅读模式

译  名 突击女孩
片  名 アサルトガールズ
年  代 2009
国  家 日本
类  别 动作/科幻
语  言 日语/英语
上映日期 2009-12-19(日本)
片  长 Japan: 65 分钟
导  演 押井守
主  演 黒木メイサ
      菊地凛子
      佐伯日菜子
      イアン・ムーア
      藤木義勝


简  介


  在虚拟空间阿瓦隆(f)中,核战争后的沙漠荒野地区(Desert22)出没着巨型鲸怪。格蕾、路西法、卡奈尔、叶戈,三女一男四个玩家分别使用各种武器攻击鲸群获得点数。交战过程中,叶戈一时不慎,被一头巨鲸吞噬,就此退出了游戏。突然,在“幸存”的三个人面前,一头超级巨鲸出现了,它是这个区域的终极猎物。在强悍的大BOSS面前,三位女战士毫无退路……   格蕾回到位于火山口中的据点,清算战斗结果。她发现自己的成绩还不错。谁知游戏主机却冷冷地告诉她:“以你的等级水平根本无法打到最终猎物”、“试试和别的玩家组队作战吧。”   为了与游荡在Desert22的路西法、卡奈尔等取得联系,格蕾在联络点中留下了讯息。女战士们都做出了回应,只有叶戈无视她的要求。夜里,当叶戈在自己的营地中做饭时,格蕾出现在他面前……   进入露营模式后,大家汇集在山丘。要打倒超级鲸怪,通过这片区域,只有全体玩家组队合力一搏才有胜算,而作战的王牌就是叶戈所装备的武器20mm机关炮战车。在点数分配问题上,叶戈与格蕾起了争执。两人一对一决斗后,叶戈才接受了女战士们开出的条件。至今一直独自作战的玩家们,在格蕾的指挥下,展开了最后一战。   格蕾操控光学迷彩战斗机,路西法变成了大乌鸦从空中攻击,卡奈尔好换来猎兵“天人”从天而降,叶戈也已经待命。超级鲸怪再度现身,只见硝烟弥漫,火球染红天空。在格蕾等人的掩护下,叶戈瞄准了终极猎物……




Video
ID                                       : 1
Format                                   : AVC
Format/Info                              : Advanced Video Codec
Format profile                           : [email protected]
Format settings, CABAC                   : Yes
Format settings, ReFrames                : 4 frames
Codec ID                                 : V_MPEG4/ISO/AVC
Duration                                 : 1h 10mn
Bit rate                                 : 9 633 Kbps
Width                                    : 1 920 pixels
Height                                   : 1 080 pixels
Display aspect ratio                     : 16:9
Frame rate mode                          : Constant
Frame rate                               : 23.976 fps
Color space                              : YUV
Chroma subsampling                       : 4:2:0
Bit depth                                : 8 bits
Scan type                                : Progressive
Bits/(Pixel*Frame)                       : 0.194
Stream size                              : 4.62 GiB (84%)
Writing library                          : x264 core 115 r1947 b5a8ad7
Encoding settings                        : cabac=1 / ref=4 / deblock=1:0:0 / analyse=0x3:0x133 / me=umh / subme=8 / psy=1 / psy_rd=1.00:0.00 / mixed_ref=1 / me_range=16 / chroma_me=1 / trellis=1 / 8x8dct=1 / cqm=0 / deadzone=21,11 / fast_pskip=0 / chroma_qp_offset=-2 / threads=12 / sliced_threads=0 / nr=0 / decimate=1 / interlaced=0 / bluray_compat=0 / constrained_intra=0 / bframes=3 / b_pyramid=2 / b_adapt=1 / b_bias=0 / direct=1 / weightb=1 / open_gop=0 / weightp=2 / keyint=240 / keyint_min=24 / scenecut=40 / intra_refresh=0 / rc_lookahead=40 / rc=2pass / mbtree=1 / bitrate=9633 / ratetol=1.0 / qcomp=0.60 / qpmin=0 / qpmax=69 / qpstep=4 / cplxblur=20.0 / qblur=0.5 / ip_ratio=1.40 / aq=1:1.00
Language                                 : English
Default                                  : Yes
Forced                                   : No

Audio
ID                                       : 3
Format                                   : DTS
Format/Info                              : Digital Theater Systems
Mode                                     : 16
Format settings, Endianness              : Big
Codec ID                                 : A_DTS
Duration                                 : 1h 10mn
Bit rate mode                            : Constant
Bit rate                                 : 1 509 Kbps
Channel(s)                               : 6 channels
Channel positions                        : Front: L C R, Side: L R, LFE
Sampling rate                            : 48.0 KHz
Bit depth                                : 16 bits
Compression mode                         : Lossy
Stream size                              : 758 MiB (14%)
Default                                  : Yes
Forced                                   : No

Text
ID                                       : 2
Format                                   : UTF-8
Codec ID                                 : S_TEXT/UTF8
Codec ID/Info                            : UTF-8 Plain Text
Default                                  : Yes
Forced                                   : No






                                                                                                                                                                                                       

                                                                                                                       
                                                                                                                                                                                                                                                        Assault.Girls.2009.1080p.BluRay.x264-aAF.torrent (55.21 KB, 下载次数: 0)

回复

使用道具 举报

小黑屋|百度云资源论坛

本网站所有资源来自网络,如无意中侵犯了您的权益,请发邮件至 [email protected],立即清除相关链接

GMT+8, 2022-9-29 11:48 , Processed in 0.073251 second(s), 26 queries .

Powered by Discuz! X3.2

© 2001-2013 Comsenz Inc.

快速回复 返回顶部 返回列表