百度云资源论坛

 找回密码
 立即注册
搜索

[科幻片] 红色派系:起源 Red.Faction.Origins.2011.1080p.BluRay.x264.DTS-FGT 5.09GB

[复制链接]
电影首发 发表于 2015-11-10 08:40:00 | 显示全部楼层 |阅读模式

译  名 红色派系:起源
片  名 Red Faction: Origins
年  代 2011
国  家 美国
类  别 科幻
语  言 英语
上映日期 2011-06-04
片  长 120
导  演 Michael Nankin
主  演 罗伯特·帕特里克 Robert Patrick
      塔姆金·莫钦特 Tamzin Merchant
      德文·格拉耶 Devon Graye
      布莱恩·J·史密斯 Brian J. Smith
      Gareth David-Lloyd 加雷思·大卫-劳埃德


简  介


  《红色派系:起源》的故事将沿用游戏的背景和人设:自Alec Mason带领火星殖民地重获自由已经过去了25年,而他的妻子被杀,女儿Lyra被绑架也过去了12年,Alec自那时起便已是一名破碎的英雄。他剩下的唯一的儿子,Jake Mason,现在已经成为了红派民兵(Red Faction Militia)的军官,当他发现12年前被绑架的妹妹至今还活着时,他的世界被颠覆了。   即使有新的敌人蜂拥至火星,但Jake依旧决定去寻找他的妹妹,但他发现Lyra现在却成了敌对势力的一员,一个冷血的战士,发誓要毁掉红派(Red Faction)。Kate Vernon将饰演The Matriarch,入侵者的族长。




Video
ID                                       : 1
Format                                   : AVC
Format/Info                              : Advanced Video Codec
Format profile                           : [email protected]
Format settings, CABAC                   : Yes
Format settings, ReFrames                : 4 frames
Codec ID                                 : V_MPEG4/ISO/AVC
Duration                                 : 1h 31mn
Bit rate                                 : 6 307 Kbps
Width                                    : 1 920 pixels
Height                                   : 1 080 pixels
Display aspect ratio                     : 16:9
Frame rate mode                          : Constant
Frame rate                               : 23.976 fps
Color space                              : YUV
Chroma subsampling                       : 4:2:0
Bit depth                                : 8 bits
Scan type                                : Progressive
Bits/(Pixel*Frame)                       : 0.127
Stream size                              : 4.03 GiB (79%)
Writing library                          : x264 core 148 r2638 7599210
Encoding settings                        : cabac=1 / ref=4 / deblock=1:-3:-3 / analyse=0x3:0x133 / me=umh / subme=8 / psy=1 / psy_rd=1.00:0.15 / mixed_ref=1 / me_range=16 / chroma_me=1 / trellis=1 / 8x8dct=1 / cqm=0 / deadzone=21,11 / fast_pskip=0 / chroma_qp_offset=-3 / threads=12 / lookahead_threads=2 / sliced_threads=0 / nr=0 / decimate=1 / interlaced=0 / bluray_compat=0 / constrained_intra=0 / bframes=3 / b_pyramid=2 / b_adapt=2 / b_bias=0 / direct=3 / weightb=1 / open_gop=0 / weightp=2 / keyint=240 / keyint_min=24 / scenecut=40 / intra_refresh=0 / rc_lookahead=50 / rc=crf / mbtree=1 / crf=20.0 / qcomp=0.60 / qpmin=0 / qpmax=69 / qpstep=4 / ip_ratio=1.40 / aq=1:1.00
Language                                 : English
Default                                  : Yes
Forced                                   : No

Audio
ID                                       : 2
Format                                   : DTS
Format/Info                              : Digital Theater Systems
Mode                                     : 16
Format settings, Endianness              : Big
Codec ID                                 : A_DTS
Duration                                 : 1h 31mn
Bit rate mode                            : Constant
Bit rate                                 : 1 509 Kbps
Channel(s)                               : 6 channels
Channel positions                        : Front: L C R, Side: L R, LFE
Sampling rate                            : 48.0 KHz
Bit depth                                : 24 bits
Compression mode                         : Lossy
Stream size                              : 986 MiB (19%)
Language                                 : English
Default                                  : Yes
Forced                                   : No

Menu
00:00:00.000                             : en:00:00:00.000
00:08:17.956                             : en:00:08:17.956
00:15:42.316                             : en:00:15:42.316
00:22:32.977                             : en:00:22:32.977
00:30:12.352                             : en:00:30:12.352
00:39:03.258                             : en:00:39:03.258
00:48:30.741                             : en:00:48:30.741
00:55:57.729                             : en:00:55:57.729
01:02:49.683                             : en:01:02:49.683
01:09:09.687                             : en:01:09:09.687
01:15:15.928                             : en:01:15:15.928
01:22:13.971                             : en:01:22:13.971





                                                                                                                                                                                                       

                                                                                                                       
                                                                                                                                                                                                                                                        Red.Faction.Origins.2011.1080p.BluRay.x264.DTS-FGT.torrent (51.52 KB, 下载次数: 0)

回复

使用道具 举报

小黑屋|百度云资源论坛

本网站所有资源来自网络,如无意中侵犯了您的权益,请发邮件至 [email protected],立即清除相关链接

GMT+8, 2022-9-30 12:50 , Processed in 0.083850 second(s), 26 queries .

Powered by Discuz! X3.2

© 2001-2013 Comsenz Inc.

快速回复 返回顶部 返回列表