百度云资源论坛

 找回密码
 立即注册
搜索

[剧情片] 对我说 Talk.to.Me.2007.1080p.BluRay.x264.DTS-FGT 10.54GB

[复制链接]
电影首发 发表于 2015-11-10 08:40:00 | 显示全部楼层 |阅读模式

译  名 对我说
片  名 Talk to Me
年  代 2007
国  家 美国
类  别 传记/剧情/历史/音乐/战争
语  言 英语
上映日期 2007-05-17
片  长 118 分钟
导  演 Kasi Lemmons
主  演 Todd Schroeder
      Ira Zingraff
      Robert Tavenor
      Keith Sweat
      Erick Peterson


简  介


  本片讲述的是60年代著名的黑人脱口秀主持人社会活动家拉尔夫・ 瓦尔多“petey”格林(唐·钱德尔饰)的真实故事。他富有个性,言语犀利,毫不忌讳的在一个白人州公开地发表言论。虽然面对重重阻力和干扰,他空前的“实话实说”现场直播方式给了黑人社区发言权和勇气。“petey”的声音成为那个激动而动荡的时代的经典记忆。




Video
ID                                       : 1
Format                                   : AVC
Format/Info                              : Advanced Video Codec
Format profile                           : [email protected]
Format settings, CABAC                   : Yes
Format settings, ReFrames                : 4 frames
Codec ID                                 : V_MPEG4/ISO/AVC
Duration                                 : 1h 58mn
Bit rate                                 : 11.5 Mbps
Width                                    : 1 920 pixels
Height                                   : 816 pixels
Display aspect ratio                     : 2.35:1
Frame rate mode                          : Constant
Frame rate                               : 23.976 fps
Color space                              : YUV
Chroma subsampling                       : 4:2:0
Bit depth                                : 8 bits
Scan type                                : Progressive
Bits/(Pixel*Frame)                       : 0.306
Stream size                              : 9.08 GiB (86%)
Writing library                          : x264 core 146 r2555 0c21480
Encoding settings                        : cabac=1 / ref=4 / deblock=1:-2:-2 / analyse=0x3:0x113 / me=umh / subme=7 / psy=1 / psy_rd=1.00:0.15 / mixed_ref=1 / me_range=16 / chroma_me=1 / trellis=1 / 8x8dct=1 / cqm=0 / deadzone=21,11 / fast_pskip=1 / chroma_qp_offset=-3 / threads=12 / lookahead_threads=3 / sliced_threads=0 / nr=0 / decimate=1 / interlaced=0 / bluray_compat=0 / constrained_intra=0 / bframes=3 / b_pyramid=2 / b_adapt=2 / b_bias=0 / direct=3 / weightb=1 / open_gop=0 / weightp=2 / keyint=250 / keyint_min=25 / scenecut=40 / intra_refresh=0 / rc_lookahead=50 / rc=abr / mbtree=1 / bitrate=11500 / ratetol=1.0 / qcomp=0.60 / qpmin=0 / qpmax=69 / qpstep=4 / vbv_maxrate=31250 / vbv_bufsize=31250 / nal_hrd=none / filler=0 / ip_ratio=1.40 / aq=1:1.00
Language                                 : English
Default                                  : Yes
Forced                                   : No

Audio
ID                                       : 2
Format                                   : DTS
Format/Info                              : Digital Theater Systems
Mode                                     : 16
Format settings, Endianness              : Big
Codec ID                                 : A_DTS
Duration                                 : 1h 58mn
Bit rate mode                            : Constant
Bit rate                                 : 1 509 Kbps
Channel(s)                               : 6 channels
Channel positions                        : Front: L C R, Side: L R, LFE
Sampling rate                            : 48.0 KHz
Bit depth                                : 16 bits
Compression mode                         : Lossy
Stream size                              : 1.25 GiB (12%)
Language                                 : English
Default                                  : Yes
Forced                                   : No

Menu
00:00:00.000                             : en:Chapter 01
00:06:16.334                             : en:Chapter 02
00:12:13.315                             : en:Chapter 03
00:18:58.428                             : en:Chapter 04
00:22:53.497                             : en:Chapter 05
00:31:24.674                             : en:Chapter 06
00:37:26.118                             : en:Chapter 07
00:45:05.994                             : en:Chapter 08
00:51:52.150                             : en:Chapter 09
00:57:48.381                             : en:Chapter 10
01:03:25.301                             : en:Chapter 11
01:10:30.601                             : en:Chapter 12
01:17:39.780                             : en:Chapter 13
01:23:54.696                             : en:Chapter 14
01:31:59.972                             : en:Chapter 15
01:38:04.920                             : en:Chapter 16
01:45:31.074                             : en:Chapter 17
01:52:19.816                             : en:Chapter 18






                                                                                                                                                                                                       

                                                                                                                       
                                                                                                                                                                                                                                                        Talk.to.Me.2007.1080p.BluRay.x264.DTS-FGT.torrent (53.31 KB, 下载次数: 0)

回复

使用道具 举报

小黑屋|百度云资源论坛

本网站所有资源来自网络,如无意中侵犯了您的权益,请发邮件至 [email protected],立即清除相关链接

GMT+8, 2022-9-29 10:50 , Processed in 0.102993 second(s), 26 queries .

Powered by Discuz! X3.2

© 2001-2013 Comsenz Inc.

快速回复 返回顶部 返回列表