百度云资源论坛

 找回密码
 立即注册
搜索

后天/明日之后/末日浩劫 The.Day.After.Tomorrow.2004.1080p.BluRay.x264.DTS-TiMELOR ...

[复制链接]
电影首发 发表于 2015-11-10 08:40:00 | 显示全部楼层 |阅读模式

译  名 后天/明日之后/末日浩劫/明日过后/末日世界/明天過後
片  名 The Day After Tomorrow
年  代 2004
国  家 美国
类  别 动作/科幻/冒险/灾难
语  言 英语/日语/法语/阿拉伯语/西班牙语
上映日期 2004-05-17(墨西哥首映)/2004-05-28(中国大陆/美国)
片  长 124分钟
导  演 罗兰·艾默里奇 Roland Emmerich
主  演 丹尼斯·奎德 Dennis Quaid
      杰克·吉伦哈尔 Jake Gyllenhaal
      埃米·罗森 Emmy Rossum
      达什·米霍克 Dash Mihok
      杰伊·桑德斯 Jay O. Sanders
      雪拉·渥德 Sela Ward
      奥斯汀·尼可斯 Austin Nichols
      阿尔杰·史密斯 Arjay Smith
      富田譚玲 Tamlyn Tomita
      萨沙·罗伊茨 Sasha Roiz
      伊安·霍姆 Ian Holm


简  介


  美国气候学家杰克(丹尼斯•奎德 Dennis Quaid 饰)认为,温室效应正在引发地球的大灾难,北极冰川的融化,会让地球回到冰河世纪那样的劫难。他的提醒并没有引起美国当局的重视,一切都已经太晚:飓风、冰雹、洪水、冰山融化、极度严寒,一系列的地球巨变引发了一场不可挽救的灾难。美国政府组织北纬30度的民众转移到赤道周围,场面一片混乱。更糟糕的是,杰克的儿子,正困在曼哈顿的图书馆里,靠烧书生火来维持体温。大家怎样才能逃过这场灭顶的灾祸?冰天雪地的地球何时才能回暖?


获奖情况


  第14届MTV电影奖 (2005)
  MTV电影奖 最具突破女演员(提名) 埃米·罗森
  MTV电影奖 最佳动作场面




Video
ID                                       : 1
Format                                   : AVC
Format/Info                              : Advanced Video Codec
Format profile                           : [email protected]
Format settings, CABAC                   : Yes
Format settings, ReFrames                : 5 frames
Codec ID                                 : V_MPEG4/ISO/AVC
Duration                                 : 2h 3mn
Bit rate                                 : 9 200 Kbps
Width                                    : 1 920 pixels
Height                                   : 816 pixels
Display aspect ratio                     : 2.35:1
Frame rate mode                          : Constant
Frame rate                               : 23.976 fps
Color space                              : YUV
Chroma subsampling                       : 4:2:0
Bit depth                                : 8 bits
Scan type                                : Progressive
Bits/(Pixel*Frame)                       : 0.245
Stream size                              : 7.77 GiB (84%)
Writing library                          : x264 core 58 r763M 0949975
Encoding settings                        : cabac=1 / ref=5 / deblock=1:0:0 / analyse=0x3:0x133 / me=umh / subme=7 / me-prepass=0 / brdo=1 / mixed_ref=1 / me_range=16 / chroma_me=1 / trellis=1 / 8x8dct=1 / cqm=0 / deadzone=21,11 / chroma_qp_offset=0 / threads=6 / nr=0 / decimate=1 / mbaff=0 / bframes=3 / b_pyramid=1 / b_adapt=1 / b_bias=0 / direct=1 / wpredb=1 / bime=1 / keyint=250 / keyint_min=25 / scenecut=40(pre) / rc=2pass / bitrate=9200 / ratetol=1.0 / rceq=\'blurCplx^(1-qComp)\' / qcomp=1.00 / qpmin=10 / qpmax=51 / qpstep=4 / cplxblur=20.0 / qblur=0.5 / ip_ratio=1.40 / pb_ratio=1.30 / aq=1:0.5:13.0
Default                                  : Yes
Forced                                   : No

Audio
ID                                       : 2
Format                                   : DTS
Format/Info                              : Digital Theater Systems
Mode                                     : 16
Format settings, Endianness              : Big
Codec ID                                 : A_DTS
Duration                                 : 2h 3mn
Bit rate mode                            : Constant
Bit rate                                 : 1 509 Kbps
Channel(s)                               : 6 channels
Channel positions                        : Front: L C R, Side: L R, LFE
Sampling rate                            : 48.0 KHz
Bit depth                                : 24 bits
Compression mode                         : Lossy
Stream size                              : 1.30 GiB (14%)
Language                                 : English
Default                                  : Yes
Forced                                   : No






                                                                                                                                                                                                       

                                                                                                                       
                                                                                                                                                                                                                                                        The.Day.After.Tomorrow.2004.1080p.BluRay.x264.DTS-TiMELORDS.torrent (93.17 KB, 下载次数: 0)

回复

使用道具 举报

小黑屋|百度云资源论坛

本网站所有资源来自网络,如无意中侵犯了您的权益,请发邮件至 [email protected],立即清除相关链接

GMT+8, 2022-9-27 00:30 , Processed in 0.084672 second(s), 26 queries .

Powered by Discuz! X3.2

© 2001-2013 Comsenz Inc.

快速回复 返回顶部 返回列表