百度云资源论坛

 找回密码
 立即注册
搜索

[喜剧片] 小屁孩日记2 Diary.of.a.Wimpy.Kid.Dog.Days.2012.1080p.BluRay.X264-AMIABLE 6.55GB ...

[复制链接]
电影首发 发表于 2015-11-10 08:40:00 | 显示全部楼层 |阅读模式

译  名 小屁孩日记2/小孱头日记2:罗德里克法则/逊咖日记2:葛瑞不能说的秘密/孱仔歷險記2(港)
片  名 Diary of a Wimpy Kid 2: Rodrick Rules
年  代 2011
国  家 美国
类  别 喜剧
语  言 英语
上映日期 2011-03-25
片  长 93分钟
导  演 大卫·博维斯 David Bowers
主  演 扎克瑞·戈登 Zachary Gordon
      戴文·博斯蒂克 Devon Bostick
      拉琪儿·哈里斯 Rachael Harris
      罗伯特·卡普荣 Robert Capron
      史蒂夫·茨恩 Steve Zahn
      卡兰·布拉尔 Karan Brar


简  介


  又是新的一年,格雷格·赫夫利(扎克瑞·戈登 Zachary Gordon 饰)顺利升上7年纪,以算作老鸟的他将目标锁定在和他同班的明星女孩霍莉·希尔斯(佩顿·利斯特 Peyton List 饰)身上,为了引起对方的注意他真是想尽一切办法。另一方面,格雷格跟哥哥罗德里克(戴文·博斯蒂克 Devon Bostick 饰)的关系却日趋紧张,乖张罗德里克抓紧一切时机捉弄弟弟,令他们的母亲苏珊(Rachael Harris 饰)大为光火。苏珊想尽一切办法要改善这对冤家兄弟的关系,而在这一过程中自然也闹出了不少的笑话。新的学年,新的故事,小屁孩的日记如期上演……
  本片根据美国作家杰夫·金尼(Jeff Kinney)的同名畅销儿童系列读物改编。




Video
ID                                       : 1
Format                                   : AVC
Format/Info                              : Advanced Video Codec
Format profile                           : [email protected]
Format settings, CABAC                   : Yes
Format settings, ReFrames                : 5 frames
Codec ID                                 : V_MPEG4/ISO/AVC
Duration                                 : 1h 33mn
Bit rate                                 : 8 482 Kbps
Width                                    : 1 920 pixels
Height                                   : 816 pixels
Display aspect ratio                     : 2.35:1
Frame rate mode                          : Constant
Frame rate                               : 23.976 fps
Color space                              : YUV
Chroma subsampling                       : 4:2:0
Bit depth                                : 8 bits
Scan type                                : Progressive
Bits/(Pixel*Frame)                       : 0.226
Stream size                              : 5.43 GiB (83%)
Writing library                          : x264 core 129 r2230 1cffe9f
Encoding settings                        : cabac=1 / ref=5 / deblock=1:0:0 / analyse=0x3:0x113 / me=umh / subme=8 / psy=1 / psy_rd=1.00:0.00 / mixed_ref=1 / me_range=16 / chroma_me=1 / trellis=1 / 8x8dct=1 / cqm=0 / deadzone=21,11 / fast_pskip=1 / chroma_qp_offset=-2 / threads=12 / lookahead_threads=2 / sliced_threads=0 / nr=0 / decimate=1 / interlaced=0 / bluray_compat=0 / constrained_intra=0 / bframes=3 / b_pyramid=2 / b_adapt=2 / b_bias=0 / direct=3 / weightb=1 / open_gop=0 / weightp=2 / keyint=240 / keyint_min=24 / scenecut=40 / intra_refresh=0 / rc_lookahead=50 / rc=2pass / mbtree=1 / bitrate=8482 / ratetol=1.0 / qcomp=0.60 / qpmin=0 / qpmax=69 / qpstep=4 / cplxblur=20.0 / qblur=0.5 / ip_ratio=1.40 / aq=1:1.00
Language                                 : English
Default                                  : Yes
Forced                                   : No

Audio
ID                                       : 2
Format                                   : DTS
Format/Info                              : Digital Theater Systems
Mode                                     : 16
Format settings, Endianness              : Big
Codec ID                                 : A_DTS
Duration                                 : 1h 33mn
Bit rate mode                            : Constant
Bit rate                                 : 1 509 Kbps
Channel(s)                               : 6 channels
Channel positions                        : Front: L C R, Side: L R, LFE
Sampling rate                            : 48.0 KHz
Bit depth                                : 24 bits
Compression mode                         : Lossy
Stream size                              : 1 014 MiB (15%)
Language                                 : English
Default                                  : Yes
Forced                                   : No

Text
ID                                       : 3
Format                                   : UTF-8
Codec ID                                 : S_TEXT/UTF8
Codec ID/Info                            : UTF-8 Plain Text
Language                                 : English
Default                                  : No
Forced                                   : No

Menu
00:00:00.000                             : en:00:00:00.000
00:05:20.362                             : en:00:05:20.362
00:06:30.724                             : en:00:06:30.724
00:10:10.735                             : en:00:10:10.735
00:12:05.391                             : en:00:12:05.391
00:16:22.190                             : en:00:16:22.190
00:20:44.201                             : en:00:20:44.201
00:23:27.197                             : en:00:23:27.197
00:27:53.463                             : en:00:27:53.463
00:31:16.083                             : en:00:31:16.083
00:36:40.573                             : en:00:36:40.573
00:40:10.908                             : en:00:40:10.908
00:43:41.953                             : en:00:43:41.953
00:48:55.432                             : en:00:48:55.432
00:52:15.716                             : en:00:52:15.716
00:54:32.227                             : en:00:54:32.227
00:59:13.091                             : en:00:59:13.091
01:02:26.201                             : en:01:02:26.201
01:05:31.719                             : en:01:05:31.719
01:08:22.140                             : en:01:08:22.140
01:12:35.142                             : en:01:12:35.142
01:15:20.266                             : en:01:15:20.266
01:21:57.329                             : en:01:21:57.329
01:27:19.985                             : en:01:27:19.985






                                                                                                                                                                                                       

                                                                                                                       
                                                                                                                                                                                                                                                        Diary.of.a.Wimpy.Kid.Dog.Days.2012.1080p.BluRay.X264-AMIABLE.torrent (66.2 KB, 下载次数: 0)

回复

使用道具 举报

小黑屋|百度云资源论坛

本网站所有资源来自网络,如无意中侵犯了您的权益,请发邮件至 [email protected],立即清除相关链接

GMT+8, 2022-9-29 11:53 , Processed in 0.074385 second(s), 26 queries .

Powered by Discuz! X3.2

© 2001-2013 Comsenz Inc.

快速回复 返回顶部 返回列表