百度云资源论坛

 找回密码
 立即注册
搜索

[动作片] 非常小特务4 Spy.Kids.All.the.Time.in.the.World.2011.1080p.Bluray.x264-CBGB 6.55G ...

[复制链接]
电影首发 发表于 2015-11-10 08:40:00 | 显示全部楼层 |阅读模式

译  名 非常小特工之时间大盗/非常小特务:决战锁时狂魔4D(港)/非常小特务4/特工神童4
片  名 Spy Kids: All the Time in the World
年  代 2011
国  家 美国
类  别 动作/冒险/喜剧/家庭/科幻
语  言 英语
上映日期 2011-08-19(美国)/2012-03-06(中国大陆)
片  长 89分钟
导  演 罗伯特·罗德里格兹 Robert Rodriguez
主  演 杰西卡·阿尔芭 Jessica Alba
      杰里米·皮文 Jeremy Piven
      乔尔·麦克哈尔 Joel McHale
      罗温·布兰查德 Rowan Blanchard
      曼森·库克 Mason Cook
      丹尼·特乔 Danny Trejo
      阿丽夏·维加 Alexa Vega
      达里尔·沙巴拉 Daryl Sabara
      瑞奇·热维斯 Ricky Gervais


简  介


  表面上, 玛丽莎·柯兹·威尔逊(杰西卡·阿尔芭 饰)有着叫人艳羡的生活…嫁给了著名的特务追踪电视新闻记者,刚生下了一个可爱的小宝宝,还有一对聪明伶俐的继子继女,但其实玛丽莎是个退休的特务。
  当疯狂的时间控制者(杰里米·皮文 饰)发出警告说要偷走时间并征服全世界的时候,玛丽莎的生活发生了翻天覆地的变化。继女瑞贝卡和继子塞西也被卷入了战争,而他们发现自己无聊透顶的继母居然是曾经最棒的特务。带着令人眼界大开的新奇装备,非常小特务们非常有可能依靠智慧再一次拯救世界,并且让全家人团聚。




Video
ID                                       : 1
Format                                   : AVC
Format/Info                              : Advanced Video Codec
Format profile                           : [email protected]
Format settings, CABAC                   : Yes
Format settings, ReFrames                : 4 frames
Muxing mode                              : Header stripping
Codec ID                                 : V_MPEG4/ISO/AVC
Duration                                 : 1h 27mn
Bit rate                                 : 9 192 Kbps
Width                                    : 1 920 pixels
Height                                   : 1 080 pixels
Display aspect ratio                     : 16:9
Frame rate mode                          : Constant
Frame rate                               : 23.976 fps
Color space                              : YUV
Chroma subsampling                       : 4:2:0
Bit depth                                : 8 bits
Scan type                                : Progressive
Bits/(Pixel*Frame)                       : 0.185
Stream size                              : 5.50 GiB (84%)
Writing library                          : x264 core 119 r2106 07efeb4
Encoding settings                        : cabac=1 / ref=4 / deblock=1:0:0 / analyse=0x3:0x113 / me=umh / subme=8 / psy=1 / psy_rd=1.00:0.20 / mixed_ref=1 / me_range=16 / chroma_me=1 / trellis=1 / 8x8dct=1 / cqm=0 / deadzone=21,11 / fast_pskip=1 / chroma_qp_offset=-3 / threads=12 / sliced_threads=0 / nr=0 / decimate=1 / interlaced=0 / bluray_compat=0 / constrained_intra=0 / bframes=3 / b_pyramid=2 / b_adapt=1 / b_bias=0 / direct=3 / weightb=1 / open_gop=0 / weightp=2 / keyint=250 / keyint_min=23 / scenecut=40 / intra_refresh=0 / rc_lookahead=40 / rc=2pass / mbtree=1 / bitrate=9192 / ratetol=1.0 / qcomp=0.60 / qpmin=0 / qpmax=69 / qpstep=4 / cplxblur=20.0 / qblur=0.5 / ip_ratio=1.40 / aq=1:1.00
Language                                 : English
Default                                  : Yes
Forced                                   : No

Audio
ID                                       : 2
Format                                   : DTS
Format/Info                              : Digital Theater Systems
Mode                                     : 16
Format settings, Endianness              : Big
Muxing mode                              : Header stripping
Codec ID                                 : A_DTS
Duration                                 : 1h 27mn
Bit rate mode                            : Constant
Bit rate                                 : 1 509 Kbps
Channel(s)                               : 6 channels
Channel positions                        : Front: L C R, Side: L R, LFE
Sampling rate                            : 48.0 KHz
Bit depth                                : 24 bits
Compression mode                         : Lossy
Stream size                              : 947 MiB (14%)
Language                                 : English
Default                                  : Yes
Forced                                   : No

Menu
00:00:00.000                             : en:00:00:00.000
00:06:43.778                             : en:00:06:43.778
00:08:59.289                             : en:00:08:59.289
00:15:08.491                             : en:00:15:08.491
00:20:19.552                             : en:00:20:19.552
00:29:47.119                             : en:00:29:47.119
00:34:02.082                             : en:00:34:02.082
00:42:37.680                             : en:00:42:37.680
00:47:06.032                             : en:00:47:06.032
00:52:49.917                             : en:00:52:49.917
00:58:30.257                             : en:00:58:30.257
01:04:22.984                             : en:01:04:22.984
01:09:17.570                             : en:01:09:17.570
01:16:46.227                             : en:01:16:46.227
01:22:36.451                             : en:01:22:36.451




                                                                                                                                                                                                       

                                                                                                                       
                                                                                                                                                                                                                                                        Spy.Kids.All.the.Time.in.the.World.2011.1080p.Bluray.x264-CBGB.torrent (66.08 KB, 下载次数: 0)

回复

使用道具 举报

小黑屋|百度云资源论坛

本网站所有资源来自网络,如无意中侵犯了您的权益,请发邮件至 [email protected],立即清除相关链接

GMT+8, 2022-9-27 01:36 , Processed in 0.075855 second(s), 26 queries .

Powered by Discuz! X3.2

© 2001-2013 Comsenz Inc.

快速回复 返回顶部 返回列表