百度云资源论坛

 找回密码
 立即注册
搜索

[喜剧片] 亚瑟/阔少爷 Arthur.2011.1080p.Bluray.x264-MaxHD 8.74GB

[复制链接]
电影首发 发表于 2015-11-9 08:34:00 | 显示全部楼层 |阅读模式

译  名 亚瑟/阔少爷
片  名 Arthur
年  代 2011
国  家 美国
类  别 喜剧
语  言 英语
上映日期 2011-04-08(美国)
片  长 110分钟
导  演 Jason Winer
主  演 拉塞尔·布兰德 Russell Brand
      海伦·米伦 Helen Mirren
      格蕾塔·葛韦格 Greta Gerwig
      詹妮弗·加纳 Jennifer Garner
      尼克·诺特 Nick Nolte


简  介


  豪富的巴克家族继承人——亚瑟(拉塞尔•布兰德 Russell Brand 饰)是纽约城里知名的彼得潘式的人物,他化装成蝙蝠侠横冲直撞之类的荒唐行为屡屡见报,令他执掌家族公司的母亲倍感压力。亚瑟如同无知孩童一般的行为屡屡需要老管家霍布森(海伦•米伦 Helen Mirren 饰)收拾残局,母亲无法忍受亚瑟为公司名誉抹黑的举止,以断绝其经济来源要挟亚瑟和自己得力的女助手苏珊成婚,苏珊颇有事业野心,一心要靠这场婚姻提升她建筑商家庭出身的地位。看见钱财份上向母亲低头的亚瑟在街上偶遇无证导游娜奥米(格蕾塔•葛韦格 Greta Gerwig 饰),后者的风采令亚瑟萌发了爱意,在结婚和爱情的分叉路口,亚瑟希望找到完美结局,而这可能是他有生以来面临的最强挑战。


获奖情况


  第32届金酸莓奖 (2012)
  最差男主角(提名) 拉塞尔·布兰德
  最差前传、重拍、恶搞及续集电影(提名)


  第13届美国青少年选择奖 (2011)
  最佳喜剧片男演员(提名) 拉塞尔·布兰德




Video
ID                                       : 1
Format                                   : AVC
Format/Info                              : Advanced Video Codec
Format profile                           : [email protected]
Format settings, CABAC                   : Yes
Format settings, ReFrames                : 4 frames
Muxing mode                              : Header stripping
Codec ID                                 : V_MPEG4/ISO/AVC
Duration                                 : 1h 49mn
Bit rate                                 : 9 870 Kbps
Width                                    : 1 920 pixels
Height                                   : 1 080 pixels
Display aspect ratio                     : 16:9
Frame rate mode                          : Constant
Frame rate                               : 23.976 fps
Color space                              : YUV
Chroma subsampling                       : 4:2:0
Bit depth                                : 8 bits
Scan type                                : Progressive
Bits/(Pixel*Frame)                       : 0.199
Stream size                              : 7.40 GiB (85%)
Writing library                          : x264 core 115 r2008 4c552d8
Encoding settings                        : cabac=1 / ref=4 / deblock=1:0:0 / analyse=0x3:0x133 / me=umh / subme=7 / psy=1 / psy_rd=1.00:0.00 / mixed_ref=1 / me_range=16 / chroma_me=1 / trellis=1 / 8x8dct=1 / cqm=0 / deadzone=21,11 / fast_pskip=0 / chroma_qp_offset=-2 / threads=12 / sliced_threads=0 / nr=0 / decimate=1 / interlaced=0 / bluray_compat=0 / constrained_intra=0 / bframes=3 / b_pyramid=2 / b_adapt=2 / b_bias=0 / direct=3 / weightb=1 / open_gop=0 / weightp=2 / keyint=250 / keyint_min=23 / scenecut=40 / intra_refresh=0 / rc_lookahead=50 / rc=2pass / mbtree=1 / bitrate=9870 / ratetol=1.0 / qcomp=0.60 / qpmin=0 / qpmax=69 / qpstep=4 / cplxblur=20.0 / qblur=0.5 / ip_ratio=1.40 / aq=1:1.00
Language                                 : English
Default                                  : Yes
Forced                                   : No

Audio
ID                                       : 2
Format                                   : DTS
Format/Info                              : Digital Theater Systems
Mode                                     : 16
Format settings, Endianness              : Big
Muxing mode                              : Header stripping
Codec ID                                 : A_DTS
Duration                                 : 1h 49mn
Bit rate mode                            : Constant
Bit rate                                 : 1 509 Kbps
Channel(s)                               : 6 channels
Channel positions                        : Front: L C R, Side: L R, LFE
Sampling rate                            : 48.0 KHz
Bit depth                                : 24 bits
Compression mode                         : Lossy
Stream size                              : 1.16 GiB (13%)
Language                                 : English
Default                                  : Yes
Forced                                   : No





                                                                                                                                                                                                       

                                                                                                                       
                                                                                                                                                                                                                                                        Arthur.2011.1080p.Bluray.x264-MaxHD.torrent (87.9 KB, 下载次数: 0)

回复

使用道具 举报

小黑屋|百度云资源论坛

本网站所有资源来自网络,如无意中侵犯了您的权益,请发邮件至 [email protected],立即清除相关链接

GMT+8, 2022-10-4 13:52 , Processed in 0.075052 second(s), 26 queries .

Powered by Discuz! X3.2

© 2001-2013 Comsenz Inc.

快速回复 返回顶部 返回列表