百度云资源论坛

 找回密码
 立即注册
搜索

[剧情片] 旺角卡门/热血男儿 As.Tears.Go.By.1988.PROPER.1080p.Bluray.x264-aBD 7.93GB ... ...

[复制链接]
电影首发 发表于 2015-11-9 08:34:00 | 显示全部楼层 |阅读模式

译  名 旺角卡门/热血男儿(台)
片  名 旺角卡門
年  代 1988
国  家 香港
类  别 犯罪/剧情/爱情
语  言 粤语
上映日期 1988-06-09(香港)
片  长 102 分钟
导  演 王家卫
主  演 刘德华
      张学友
      张曼玉
      万梓良
      林蛟 Kau Lam
      黄斌 Ronald Wong
      陈志辉 Chi Fai Chan
      王剑风
      江道海 To-hoi Kong
      张叔平 William Chang


简  介


  香港九龙区旺角混混阿杰(刘德华)做事利落重情义,颇有老大风范,为了照顾做事冲动又好面子的小弟乌蝇(张学友),他不停地在各种大小麻烦中周旋,甚至不惜为乌蝇与黑道狠角色(万梓良)结仇。
  阿杰表妹阿娥(张曼玉)前来旺角看病暂住他家,两人慢慢互生情愫,但因为担心自己的身份最终会给阿娥带来伤害,阿杰选择了将心事埋藏。待阿杰明白真情抑压不住想对命运做番抵抗时,乌蝇却再次因好面子面临生命危险,于是一道友情与爱情必选其一的难题重又摆在阿杰面前。


获奖情况


  第8届香港电影金像奖 (1989)
  最佳电影(提名)
  最佳导演(提名) 王家卫
  最佳男主角(提名) 刘德华
  最佳女主角(提名) 张曼玉
  最佳男配角 张学友
  最佳男配角(提名) 万梓良
  最佳摄影(提名) 刘伟强
  最佳剪接(提名) 蒋彼得
  最佳美术指导 张叔平
  最佳原创电影音乐(提名) 钟定一


Video
ID                                       : 1
Format                                   : AVC
Format/Info                              : Advanced Video Codec
Format profile                           : [email protected]
Format settings, CABAC                   : Yes
Format settings, ReFrames                : 4 frames
Codec ID                                 : V_MPEG4/ISO/AVC
Duration                                 : 1h 38mn
Bit rate                                 : 9 959 Kbps
Width                                    : 1 920 pixels
Height                                   : 1 080 pixels
Display aspect ratio                     : 16:9
Frame rate mode                          : Constant
Frame rate                               : 24.000 fps
Color space                              : YUV
Chroma subsampling                       : 4:2:0
Bit depth                                : 8 bits
Scan type                                : Progressive
Bits/(Pixel*Frame)                       : 0.200
Stream size                              : 6.73 GiB (85%)
Writing library                          : x264 core 66 r1109M 75b495f
Encoding settings                        : cabac=1 / ref=4 / deblock=1:-1:-1 / analyse=0x3:0x113 / me=umh / subme=7 / psy_rd=1.0:0.0 / mixed_ref=1 / me_range=16 / chroma_me=1 / trellis=2 / 8x8dct=1 / cqm=0 / deadzone=21,11 / chroma_qp_offset=-2 / threads=6 / nr=0 / decimate=1 / mbaff=0 / bframes=3 / b_pyramid=0 / b_adapt=2 / b_bias=0 / direct=3 / wpredb=1 / keyint=250 / keyint_min=25 / scenecut=40(pre) / rc=2pass / bitrate=9959 / ratetol=1.0 / qcomp=0.60 / qpmin=10 / qpmax=51 / qpstep=4 / cplxblur=20.0 / qblur=0.5 / vbv_maxrate=50000 / vbv_bufsize=50000 / ip_ratio=1.40 / pb_ratio=1.30 / aq=1:1.00
Language                                 : Chinese
Default                                  : Yes
Forced                                   : No

Audio
ID                                       : 2
Format                                   : DTS
Format/Info                              : Digital Theater Systems
Mode                                     : 16
Format settings, Endianness              : Big
Codec ID                                 : A_DTS
Duration                                 : 1h 38mn
Bit rate mode                            : Constant
Bit rate                                 : 1 509 Kbps
Channel(s)                               : 6 channels
Channel positions                        : Front: L C R, Side: L R, LFE
Sampling rate                            : 48.0 KHz
Bit depth                                : 24 bits
Compression mode                         : Lossy
Stream size                              : 1.04 GiB (13%)
Language                                 : Chinese
Default                                  : Yes
Forced                                   : No

Text
ID                                       : 3
Format                                   : UTF-8
Codec ID                                 : S_TEXT/UTF8
Codec ID/Info                            : UTF-8 Plain Text
Language                                 : English
Default                                  : Yes
Forced                                   : No






                                                                                                                                                                                                       

                                                                                                                       
                                                                                                                                                                                                                                                        As.Tears.Go.By.1988.PROPER.1080p.Bluray.x264-aBD.torrent (79.84 KB, 下载次数: 0)

回复

使用道具 举报

小黑屋|百度云资源论坛

本网站所有资源来自网络,如无意中侵犯了您的权益,请发邮件至 [email protected],立即清除相关链接

GMT+8, 2022-10-2 00:05 , Processed in 0.088638 second(s), 26 queries .

Powered by Discuz! X3.2

© 2001-2013 Comsenz Inc.

快速回复 返回顶部 返回列表