百度云资源论坛

 找回密码
 立即注册
搜索

神鬼猎人:在结冰的小道 Ghosthunters.On.Icy.Trails.2015.720p.BluRay.x264.DD5.1-RAR ...

[复制链接]
电影首发 发表于 2015-11-8 09:02:00 | 显示全部楼层 |阅读模式

译  名 神鬼猎人:在结冰的小道
片  名 Ghosthunters: On Icy Trails
年  代 2015
国  家 英国
类  别 喜剧/奇幻/家庭
语  言 德语/英语
导  演 Tobi Baumann
主  演 Milo Parker
      Anke Engelke
      Bastian Pastewka


简  介


  They couldn't be more different| the members of the trio that allies in the fight against an Ancient Ice Ghost (AIG): Tom| an easily scared boy| Hetty| a
professional ghosthunter and the loveable| but pretty slimy Hugo - a ghost. Will the team manage to save their town from the next ice age?



  • Video
  • ID                                       : 1
  • Format                                   : AVC
  • Format/Info                              : Advanced Video Codec
  • Format profile                           : [email protected]
  • Format settings, CABAC                   : Yes
  • Format settings, ReFrames                : 4 frames
  • Codec ID                                 : V_MPEG4/ISO/AVC
  • Duration                                 : 1h 38mn
  • Bit rate                                 : 5 188 Kbps
  • Nominal bit rate                         : 5 500 Kbps
  • Width                                    : 1 280 pixels
  • Height                                   : 534 pixels
  • Display aspect ratio                     : 2.40:1
  • Original display aspect ratio            : 2.40:1
  • Frame rate mode                          : Constant
  • Frame rate                               : 23.976 fps
  • Color space                              : YUV
  • Chroma subsampling                       : 4:2:0
  • Bit depth                                : 8 bits
  • Scan type                                : Progressive
  • Bits/(Pixel*Frame)                       : 0.317
  • Stream size                              : 3.58 GiB (91%)
  • Title                                    : Ghosthunters.On.Icy.Trails.2015.720p.BluRay.x264.DD5.1-RARBG
  • Writing library                          : x264 core 144 r96 40bb568
  • Encoding settings                        : cabac=1 / ref=4 / deblock=1:-2:-2 / analyse=0x3:0x113 / me=umh / subme=7 / psy=1 / psy_rd=1.00:0.15 / mixed_ref=1 / me_range=16 / chroma_me=1 / trellis=1 / 8x8dct=1 / cqm=0 / deadzone=21,11 / fast_pskip=1 / chroma_qp_offset=-3 / threads=12 / lookahead_threads=3 / sliced_threads=0 / nr=0 / decimate=1 / interlaced=0 / bluray_compat=0 / constrained_intra=0 / bframes=3 / b_pyramid=2 / b_adapt=2 / b_bias=0 / direct=3 / weightb=1 / open_gop=0 / weightp=2 / keyint=250 / keyint_min=25 / scenecut=40 / intra_refresh=0 / rc_lookahead=50 / rc=abr / mbtree=1 / bitrate=5500 / ratetol=1.0 / qcomp=0.60 / qpmin=0 / qpmax=69 / qpstep=4 / vbv_maxrate=31250 / vbv_bufsize=31250 / nal_hrd=none / filler=0 / ip_ratio=1.40 / aq=1:1.00
  • Language                                 : English
  • Default                                  : Yes
  • Forced                                   : No


  • Audio
  • ID                                       : 2
  • Format                                   : AC-3
  • Format/Info                              : Audio Coding 3
  • Mode extension                           : CM (complete main)
  • Format settings, Endianness              : Big
  • Codec ID                                 : A_AC3
  • Duration                                 : 1h 38mn
  • Bit rate mode                            : Constant
  • Bit rate                                 : 384 Kbps
  • Channel(s)                               : 6 channels
  • Channel positions                        : Front: L C R, Side: L R, LFE
  • Sampling rate                            : 48.0 KHz
  • Compression mode                         : Lossy
  • Stream size                              : 271 MiB (7%)
  • Title                                    : Ghosthunters.On.Icy.Trails.2015.720p.BluRay.x264.DD5.1-RARBG
  • Language                                 : English
  • Default                                  : Yes
  • Forced                                   : No


  • Menu
  • 00:00:00.000                             : en:Chapter 01
  • 00:07:07.927                             : en:Chapter 02
  • 00:15:50.824                             : en:Chapter 03
  • 00:25:28.693                             : en:Chapter 04
  • 00:32:54.430                             : en:Chapter 05
  • 00:40:22.420                             : en:Chapter 06
  • 00:49:44.189                             : en:Chapter 07
  • 00:58:54.697                             : en:Chapter 08
  • 01:07:35.134                             : en:Chapter 09
  • 01:14:43.729                             : en:Chapter 10
  • 01:21:47.986                             : en:Chapter 11
  • 01:29:44.796                             : en:Chapter 12





                                                                                                                                                                                                       

                                                                                                                       
                                                                                                                                                                                                                                                        Ghosthunters.On.Icy.Trails.2015.720p.BluRay.x264.DD5.1-RARBG.torrent (79.21 KB, 下载次数: 0)

回复

使用道具 举报

小黑屋|百度云资源论坛

本网站所有资源来自网络,如无意中侵犯了您的权益,请发邮件至 [email protected],立即清除相关链接

GMT+8, 2022-10-4 12:09 , Processed in 0.103168 second(s), 26 queries .

Powered by Discuz! X3.2

© 2001-2013 Comsenz Inc.

快速回复 返回顶部 返回列表