百度云资源论坛

 找回密码
 立即注册
搜索

[恐怖片] 奉魔之名/驱邪 Exorcismus.2011.1080p.BluRay.x264.DTS-FGT 7.72GB

[复制链接]
电影首发 发表于 2015-11-8 08:56:00 | 显示全部楼层 |阅读模式

译  名 奉魔之名/驱邪
片  名 La Posesión De Emma Evans
年  代 2010
国  家 西班牙
类  别 恐怖
语  言 英语
导  演 Luis de la Madrid / 马努艾尔·卡瓦约
主  演 托米·巴斯托
      索菲·瓦瓦塞尔


简  介


  正值青春期的少女艾玛(苏菲·瓦瓦希尔 Sophie Vavasseur 饰)因小事与父母发生争吵,继而用玻璃碎片割破自己的手掌。在此之后,父母子女的关系虽有所松动,但是新的危机已悄悄展开。艾玛是不是会做出些奇怪的举止,这令父母异常担心,于是只得将艾玛留在家中接受教育。期间他们尝试带女儿去看具有催眠本领的心理医生,谁知医生最终猝死艾玛的膝上。艾玛自感自己已被魔鬼附体,因此不顾崇尚科学的父母的反对,执意求助于因驱魔失败而被革除神职的舅舅基斯(道·布莱德利 Doug Bradley 饰)。
  基斯似乎渐渐证实了艾玛的猜测,而她体内那股邪恶的力量也变得越来越强大……




Video
ID                                       : 1
Format                                   : AVC
Format/Info                              : Advanced Video Codec
Format profile                           : [email protected]
Format settings, CABAC                   : Yes
Format settings, ReFrames                : 4 frames
Codec ID                                 : V_MPEG4/ISO/AVC
Duration                                 : 1h 40mn
Bit rate                                 : 10.2 Mbps
Width                                    : 1 920 pixels
Height                                   : 816 pixels
Display aspect ratio                     : 2.35:1
Frame rate mode                          : Constant
Frame rate                               : 24.000 fps
Color space                              : YUV
Chroma subsampling                       : 4:2:0
Bit depth                                : 8 bits
Scan type                                : Progressive
Bits/(Pixel*Frame)                       : 0.272
Stream size                              : 7.02 GiB (91%)
Writing library                          : x264 core 119 r2106 07efeb4
Encoding settings                        : cabac=1 / ref=4 / deblock=1:-2:-2 / analyse=0x3:0x113 / me=umh / subme=10 / psy=1 / psy_rd=1.20:0.20 / mixed_ref=1 / me_range=32 / chroma_me=1 / trellis=2 / 8x8dct=1 / cqm=0 / deadzone=21,11 / fast_pskip=0 / chroma_qp_offset=-3 / threads=12 / sliced_threads=0 / nr=0 / decimate=0 / interlaced=0 / bluray_compat=0 / constrained_intra=0 / bframes=5 / b_pyramid=2 / b_adapt=2 / b_bias=0 / direct=3 / weightb=1 / open_gop=0 / weightp=2 / keyint=250 / keyint_min=2 / scenecut=40 / intra_refresh=0 / rc_lookahead=72 / rc=2pass / mbtree=1 / bitrate=10240 / ratetol=1.0 / qcomp=0.60 / qpmin=10 / qpmax=51 / qpstep=4 / cplxblur=20.0 / qblur=0.5 / vbv_maxrate=38000 / vbv_bufsize=38000 / nal_hrd=none / ip_ratio=1.40 / aq=1:1.00
Language                                 : English
Default                                  : Yes
Forced                                   : No

Audio
ID                                       : 2
Format                                   : DTS
Format/Info                              : Digital Theater Systems
Mode                                     : 16
Format settings, Endianness              : Big
Codec ID                                 : A_DTS
Duration                                 : 1h 40mn
Bit rate mode                            : Constant
Bit rate                                 : 768 Kbps
Channel(s)                               : 6 channels
Channel positions                        : Front: L C R, Side: L R, LFE
Sampling rate                            : 48.0 KHz
Bit depth                                : 16 bits
Compression mode                         : Lossy
Stream size                              : 555 MiB (7%)
Language                                 : English
Default                                  : Yes
Forced                                   : No







                                                                                                                                                                                                       

                                                                                                                       
                                                                                                                                                                                                                                                        Exorcismus.2011.1080p.BluRay.x264.DTS-FGT.torrent (77.75 KB, 下载次数: 0)

回复

使用道具 举报

小黑屋|百度云资源论坛

本网站所有资源来自网络,如无意中侵犯了您的权益,请发邮件至 [email protected],立即清除相关链接

GMT+8, 2022-10-4 12:06 , Processed in 0.091050 second(s), 26 queries .

Powered by Discuz! X3.2

© 2001-2013 Comsenz Inc.

快速回复 返回顶部 返回列表