百度云资源论坛

 找回密码
 立即注册
搜索

全面回忆/拦截记忆码 Total.Recall.2012.EXTENDED.DC.1080p.BluRay.x264.DTS-FGT 7.96 ...

[复制链接]
电影首发 发表于 2015-11-8 08:56:00 | 显示全部楼层 |阅读模式

译  名 全面回忆/拦截记忆码(台)/新宇宙威龙(港)
片  名 Total Recall
年  代 2012
国  家 美国/加拿大
类  别 动作/科幻/惊悚/冒险
语  言 英语
片  长 118分钟/130分钟(导演剪辑加长版)
导  演 伦·怀斯曼 Len Wiseman
主  演 柯林·法瑞尔 Colin Farrell
      凯特·贝金赛尔 Kate Beckinsale
      杰西卡·贝尔 Jessica Biel
      布莱恩·科兰斯顿 Bryan Cranston
      博基姆·伍德拜因 Bokeem Woodbine
      比尔·奈伊 Bill Nighy
      约翰·赵 John Cho
      李威尹 Will Yun Lee
      伊桑·霍克 Ethan Hawke
      詹姆斯·麦克格温 James McGowan
      Natalie Lisinska
      斯蒂芬·麦克唐纳德 Stephen MacDonald


简  介


  欢迎来到Rekall,它是一个能够把你的梦境变成现实的工厂。主人公道格拉斯·奎德(柯林·法瑞尔 Colin Farrell 饰)是一名普通的工厂工人。尽管他有一位漂亮的妻子(凯特·贝金赛尔 Kate Beckinsale 饰),两人看似恩爱,但他内心似乎依然不满足。思绪旅行听起来像是个完美的假期,让他从沮丧的生活中得到放松——作为一名特工的真实记忆可能正是他所需要的。但是当这个过程出现可怕的异常时,奎德变成了一个被追杀的逃犯。他发现自己正在躲避受考哈根长官(布莱恩·科兰斯顿 Bryan Cranston 饰)控制的警察,没有一个人是奎德可以信任的,除了一名叛军的女战士(杰西卡·贝尔 Jessica Biel 饰),她为地下抵抗组织的首领(比尔·奈伊 Bill Nighy 饰)工作。幻想和现实之间的界线变得模糊,他的命运凶吉难卜,因为奎德发现了他的真实身份,他的真爱,还有他真正的命运。
  本片改编自菲利普·K·迪克的著名短篇小说《We Can Remember It For You Wholesale》。


获奖情况


  第15届美国青少年选择奖 (2013)
  最佳动作片女演员(提名) 杰西卡·贝尔




Video
ID                                       : 1
Format                                   : AVC
Format/Info                              : Advanced Video Codec
Format profile                           : [email protected]
Format settings, CABAC                   : Yes
Format settings, ReFrames                : 4 frames
Codec ID                                 : V_MPEG4/ISO/AVC
Duration                                 : 2h 10mn
Bit rate                                 : 7 061 Kbps
Width                                    : 1 920 pixels
Height                                   : 800 pixels
Display aspect ratio                     : 2.40:1
Frame rate mode                          : Constant
Frame rate                               : 23.976 fps
Color space                              : YUV
Chroma subsampling                       : 4:2:0
Bit depth                                : 8 bits
Scan type                                : Progressive
Bits/(Pixel*Frame)                       : 0.192
Stream size                              : 6.43 GiB (81%)
Writing library                          : x264 core 129 r2230 1cffe9f
Encoding settings                        : cabac=1 / ref=5 / deblock=1:-1:-2 / analyse=0x3:0x113 / me=umh / subme=10 / psy=1 / psy_rd=1.10:0.19 / mixed_ref=0 / me_range=32 / chroma_me=1 / trellis=2 / 8x8dct=1 / cqm=0 / deadzone=21,11 / fast_pskip=0 / chroma_qp_offset=-2 / threads=12 / lookahead_threads=2 / sliced_threads=0 / nr=0 / decimate=1 / interlaced=0 / bluray_compat=0 / constrained_intra=0 / bframes=10 / b_pyramid=1 / b_adapt=2 / b_bias=0 / direct=2 / weightb=1 / open_gop=0 / weightp=2 / keyint=240 / keyint_min=23 / scenecut=40 / intra_refresh=0 / rc_lookahead=90 / rc=crf / mbtree=1 / crf=18.0 / qcomp=0.70 / qpmin=10 / qpmax=54 / qpstep=4 / vbv_maxrate=48000 / vbv_bufsize=40000 / crf_max=0.0 / nal_hrd=none / ip_ratio=1.40 / aq=1:1.00
Language                                 : English
Default                                  : Yes
Forced                                   : No
Color range                              : Limited
Matrix coefficients                      : BT.709

Audio
ID                                       : 2
Format                                   : DTS
Format/Info                              : Digital Theater Systems
Mode                                     : 16
Format settings, Endianness              : Big
Codec ID                                 : A_DTS
Duration                                 : 2h 10mn
Bit rate mode                            : Constant
Bit rate                                 : 1 510 Kbps
Channel(s)                               : 6 channels
Channel positions                        : Front: L C R, Side: L R, LFE
Sampling rate                            : 48.0 KHz
Bit depth                                : 24 bits
Compression mode                         : Lossy
Stream size                              : 1.37 GiB (17%)
Language                                 : English
Default                                  : Yes
Forced                                   : No

Text
ID                                       : 3
Format                                   : UTF-8
Codec ID                                 : S_TEXT/UTF8
Codec ID/Info                            : UTF-8 Plain Text
Language                                 : English
Default                                  : Yes
Forced                                   : No






                                                                                                                                                                                                       

                                                                                                                       
                                                                                                                                                                                                                                                        Total.Recall.2012.EXTENDED.DC.1080p.BluRay.x264.DTS-FGT.torrent (80.21 KB, 下载次数: 0)

回复

使用道具 举报

小黑屋|百度云资源论坛

本网站所有资源来自网络,如无意中侵犯了您的权益,请发邮件至 [email protected],立即清除相关链接

GMT+8, 2022-10-4 13:16 , Processed in 0.073026 second(s), 26 queries .

Powered by Discuz! X3.2

© 2001-2013 Comsenz Inc.

快速回复 返回顶部 返回列表