百度云资源论坛

 找回密码
 立即注册
搜索

[剧情片] 殉难者/极限:残杀炼狱/殉道者 Martyrs.2008.FRENCH.1080p.BluRay.x264.DTS-FGT 8.7GB ...

[复制链接]
电影首发 发表于 2015-11-8 08:55:00 | 显示全部楼层 |阅读模式

译  名 殉难者/极限:残杀炼狱(台)/殉道者/烈士
片  名 Martyrs
年  代 2008
国  家 法国/加拿大
类  别 剧情/恐怖/惊悚
语  言 法语
上映日期 2008-09-03
片  长 99 分钟
导  演 Pascal Laugier
主  演 莫贾娜·埃尔阿劳维 Morjana El Alaoui
      米兰妮·让帕诺米 Mylène Jampanoï
      Catherine Bégin
      Robert Toupin
      帕翠西卡·图拉斯内 Patricia Tulasne
      朱丽叶特·高斯林 Juliette Gosselin
      格扎维埃·多兰 Xavier Dolan
      Louise Boisvert
      Jean-Marie Moncelet
      Jessie Pham
      Erika Scott
      Isabelle Chasse
      Emilie Miskdjian
      Tony Robinow
      Anie Pascale


简  介


  露西(Mylène Jampanoï 饰)童年时被一神秘组织绑架,在那一年的黑暗岁月里,她饱受折磨。最终她趁守卫不注意逃脱,在孤儿院结识了新的朋友安娜(Morjana Alaoui 饰)。然而露西心灵受到严重创伤,她经常能够看到一个全身赤裸、伤痕累累的恐怖女人对她进行恐吓与追杀。露西就在恐慌与悲痛中度过了童年。
  15年后,经过一番追查,露西和安娜查到了当年的行凶者之一。露西将对方一家杀害,却仍无法摆脱童年的梦魇,最终在歇斯底里中自杀身亡。悲伤的安娜很快被那个神秘组织抓到,她将如朋友一样,被迫成为传说中的殉道者……




Video
ID                                       : 1
Format                                   : AVC
Format/Info                              : Advanced Video Codec
Format profile                           : [email protected]
Format settings, CABAC                   : Yes
Format settings, ReFrames                : 4 frames
Codec ID                                 : V_MPEG4/ISO/AVC
Duration                                 : 1h 39mn
Bit rate                                 : 11.0 Mbps
Width                                    : 1 920 pixels
Height                                   : 1 040 pixels
Display aspect ratio                     : 1.85:1
Frame rate mode                          : Constant
Frame rate                               : 23.976 fps
Color space                              : YUV
Chroma subsampling                       : 4:2:0
Bit depth                                : 8 bits
Scan type                                : Progressive
Bits/(Pixel*Frame)                       : 0.231
Stream size                              : 7.49 GiB (86%)
Writing library                          : x264 core 67 r1153M 7b6ce6a
Encoding settings                        : cabac=1 / ref=4 / deblock=1:-3:-3 / analyse=0x3:0x113 / me=umh / subme=9 / psy_rd=1.2:0.3 / mixed_ref=1 / me_range=26 / chroma_me=1 / trellis=1 / 8x8dct=1 / cqm=2 / deadzone=21,11 / chroma_qp_offset=-4 / threads=6 / nr=0 / decimate=1 / mbaff=0 / bframes=3 / b_pyramid=1 / b_adapt=1 / b_bias=0 / direct=3 / wpredb=1 / keyint=250 / keyint_min=25 / scenecut=40 / rc=2pass / bitrate=11042 / ratetol=1.0 / qcomp=0.60 / qpmin=10 / qpmax=51 / qpstep=4 / cplxblur=20.0 / qblur=0.5 / ip_ratio=1.40 / pb_ratio=1.30 / aq=1:1.00
Language                                 : French
Default                                  : Yes
Forced                                   : No

Audio
ID                                       : 2
Format                                   : DTS
Format/Info                              : Digital Theater Systems
Mode                                     : 16
Format settings, Endianness              : Big
Codec ID                                 : A_DTS
Duration                                 : 1h 39mn
Bit rate mode                            : Constant
Bit rate                                 : 1 509 Kbps
Channel(s)                               : 6 channels
Channel positions                        : Front: L C R, Side: L R, LFE
Sampling rate                            : 48.0 KHz
Bit depth                                : 24 bits
Compression mode                         : Lossy
Delay relative to video                  : 1ms
Stream size                              : 1.05 GiB (12%)
Language                                 : French
Default                                  : Yes
Forced                                   : No

Text
ID                                       : 3
Format                                   : UTF-8
Codec ID                                 : S_TEXT/UTF8
Codec ID/Info                            : UTF-8 Plain Text
Language                                 : English
Default                                  : Yes
Forced                                   : Yes





                                                                                                                                                                                                       

                                                                                                                       
                                                                                                                                                                                                                                                        Martyrs.2008.FRENCH.1080p.BluRay.x264.DTS-FGT.torrent (87.54 KB, 下载次数: 0)

回复

使用道具 举报

小黑屋|百度云资源论坛

本网站所有资源来自网络,如无意中侵犯了您的权益,请发邮件至 [email protected],立即清除相关链接

GMT+8, 2024-3-2 10:59 , Processed in 0.119327 second(s), 26 queries .

Powered by Discuz! X3.2

© 2001-2013 Comsenz Inc.

快速回复 返回顶部 返回列表