百度云资源论坛

 找回密码
 立即注册
搜索

[动作片] 第五指令 The.Fifth.Commandment.2008.1080p.BluRay.x264.DTS-FGT 10.82GB

[复制链接]
电影首发 发表于 2015-11-8 08:55:00 | 显示全部楼层 |阅读模式

译  名 第五指令
片  名 The Fifth Commandment
年  代 2008
国  家 美国
类  别 动作/喜剧/犯罪/剧情/惊悚
语  言 英语
上映日期 2008-08-22
导  演 杰西·约翰逊 Jesse V. Johnson
主  演 尹成植 Rick Yune
      凯斯·大卫 Keith David
      丹妮亚·莱米里兹 Dania Ramirez
      袁罗杰 Roger Yuan


简  介


  1976年,乔(尹成植 饰)的父母因为卷入洛杉矶的贩毒生意而遭到杀害,当时尚为幼儿的乔幸运的被杀手麦克斯(凯斯·大卫 Keith David 饰)救走,并在后者的严苛训练下成长,十一年前,和乔一起长大亲如兄弟的迈尔斯(Bokeem Woodbine 饰)不辞而别,而之后的乔成为了一名杀手。乔接受了一单以女歌星安琪儿为目标的新任务,但他惊异的发现,安琪儿的保镖居然是多年来杳无音信的迈尔斯。乔只得推掉任务并找到麦克斯一探究竟,始获知养父多年来的心结……在乔拒绝任务后,一对疯狂的杀手夫妻受命刺杀安琪儿,为了保护兄弟般的迈尔斯,乔决定与杀手战斗……




Video
ID                                       : 1
Format                                   : AVC
Format/Info                              : Advanced Video Codec
Format profile                           : [email protected]
Format settings, CABAC                   : Yes
Format settings, ReFrames                : 4 frames
Codec ID                                 : V_MPEG4/ISO/AVC
Duration                                 : 1h 30mn
Bit rate                                 : 16.0 Mbps
Width                                    : 1 920 pixels
Height                                   : 1 080 pixels
Display aspect ratio                     : 16:9
Frame rate mode                          : Constant
Frame rate                               : 23.976 fps
Color space                              : YUV
Chroma subsampling                       : 4:2:0
Bit depth                                : 8 bits
Scan type                                : Progressive
Bits/(Pixel*Frame)                       : 0.322
Stream size                              : 10.1 GiB (94%)
Writing library                          : x264 core 107 r1772 c9dad9e
Encoding settings                        : cabac=1 / ref=4 / deblock=1:0:0 / analyse=0x3:0x133 / me=umh / subme=7 / psy=1 / psy_rd=1.00:0.00 / mixed_ref=1 / me_range=16 / chroma_me=1 / trellis=1 / 8x8dct=1 / cqm=0 / deadzone=21,11 / fast_pskip=0 / chroma_qp_offset=-2 / threads=9 / sliced_threads=0 / nr=0 / decimate=1 / interlaced=0 / constrained_intra=0 / bframes=3 / b_pyramid=2 / b_adapt=1 / b_bias=0 / direct=1 / weightb=1 / open_gop=0 / weightp=2 / keyint=250 / keyint_min=23 / scenecut=40 / intra_refresh=0 / rc_lookahead=40 / rc=crf / mbtree=1 / crf=20.0 / qcomp=0.60 / qpmin=10 / qpmax=51 / qpstep=4 / ip_ratio=1.40 / aq=1:1.00
Language                                 : English
Default                                  : Yes
Forced                                   : No

Audio
ID                                       : 2
Format                                   : DTS
Format/Info                              : Digital Theater Systems
Mode                                     : 16
Format settings, Endianness              : Big
Codec ID                                 : A_DTS
Duration                                 : 1h 30mn
Bit rate mode                            : Constant
Bit rate                                 : 768 Kbps
Channel(s)                               : 2 channels
Channel positions                        : Front: L R
Sampling rate                            : 48.0 KHz
Bit depth                                : 16 bits
Compression mode                         : Lossy
Stream size                              : 497 MiB (4%)
Language                                 : English
Default                                  : Yes
Forced                                   : No






                                                                                                                                                                                                       

                                                                                                                       
                                                                                                                                                                                                                                                        The.Fifth.Commandment.2008.1080p.BluRay.x264.DTS-FGT.torrent (54.61 KB, 下载次数: 0)

回复

使用道具 举报

小黑屋|百度云资源论坛

本网站所有资源来自网络,如无意中侵犯了您的权益,请发邮件至 [email protected],立即清除相关链接

GMT+8, 2022-9-29 11:30 , Processed in 0.081960 second(s), 26 queries .

Powered by Discuz! X3.2

© 2001-2013 Comsenz Inc.

快速回复 返回顶部 返回列表