百度云资源论坛

 找回密码
 立即注册
搜索

十八岁之狼 Teen.Wolf.1985.1080p.BluRay.x264.DTS-FGT 11.39GB

[复制链接]
电影首发 发表于 2015-11-8 08:55:00 | 显示全部楼层 |阅读模式

译  名 十八岁之狼
片  名 Teen Wolf
年  代 1985
国  家 美国
类  别 喜剧/家庭/奇幻/爱情
语  言 英语
上映日期 1986-04-25
片  长 91 分钟
导  演 Rod Daniel
主  演 Michael J. Fox
      James Hampton
      Susan Ursitti


简  介


  高中生Scott发现自己愈来愈与众不同,他的全身开始生出长长的毛发,令他苦恼又担忧,可是,身体出现的神奇力量,使他突然成为高校篮球队的闪亮明星,另全校师生另眼相看。究竟,狼人的身世对Scott来说,是福还是祸?




Video
ID                                       : 1
Format                                   : AVC
Format/Info                              : Advanced Video Codec
Format profile                           : [email protected]
Format settings, CABAC                   : Yes
Format settings, ReFrames                : 4 frames
Codec ID                                 : V_MPEG4/ISO/AVC
Duration                                 : 1h 32mn
Bit rate                                 : 16.9 Mbps
Width                                    : 1 920 pixels
Height                                   : 1 040 pixels
Display aspect ratio                     : 1.85:1
Frame rate mode                          : Constant
Frame rate                               : 23.976 fps
Color space                              : YUV
Chroma subsampling                       : 4:2:0
Bit depth                                : 8 bits
Scan type                                : Progressive
Bits/(Pixel*Frame)                       : 0.353
Stream size                              : 10.7 GiB (94%)
Writing library                          : x264 core 122 r2184 5c85e0a
Encoding settings                        : cabac=1 / ref=4 / deblock=1:-3:-3 / analyse=0x3:0x113 / me=umh / subme=11 / psy=1 / psy_rd=1.00:0.10 / mixed_ref=1 / me_range=48 / chroma_me=1 / trellis=2 / 8x8dct=1 / cqm=0 / deadzone=21,11 / fast_pskip=0 / chroma_qp_offset=-3 / threads=12 / sliced_threads=0 / nr=0 / decimate=0 / interlaced=0 / bluray_compat=0 / constrained_intra=0 / bframes=5 / b_pyramid=2 / b_adapt=2 / b_bias=0 / direct=3 / weightb=1 / open_gop=0 / weightp=2 / keyint=240 / keyint_min=22 / scenecut=40 / intra_refresh=0 / rc_lookahead=40 / rc=2pass / mbtree=0 / bitrate=16900 / ratetol=1.0 / qcomp=0.60 / qpmin=0 / qpmax=69 / qpstep=4 / cplxblur=20.0 / qblur=0.5 / vbv_maxrate=40000 / vbv_bufsize=30000 / nal_hrd=none / ip_ratio=1.40 / pb_ratio=1.30 / aq=1:0.80
Language                                 : English
Default                                  : Yes
Forced                                   : No
Color range                              : Limited
Color primaries                          : BT.709
Transfer characteristics                 : BT.709
Matrix coefficients                      : BT.709

Audio
ID                                       : 2
Format                                   : DTS
Format/Info                              : Digital Theater Systems
Mode                                     : 16
Format settings, Endianness              : Big
Codec ID                                 : A_DTS
Duration                                 : 1h 32mn
Bit rate mode                            : Constant
Bit rate                                 : 768 Kbps
Channel(s)                               : 2 channels
Channel positions                        : Front: L R
Sampling rate                            : 48.0 KHz
Bit depth                                : 24 bits
Compression mode                         : Lossy
Stream size                              : 507 MiB (4%)
Language                                 : English
Default                                  : Yes
Forced                                   : No

Menu
00:00:00.000                             : :Chapter 01
00:04:55.545                             : :Chapter 02
00:14:32.872                             : :Chapter 03
00:19:19.616                             : :Chapter 04
00:22:56.500                             : :Chapter 05
00:29:29.726                             : :Chapter 06
00:35:16.114                             : :Chapter 07
00:39:57.812                             : :Chapter 08
00:42:29.380                             : :Chapter 09
00:45:31.019                             : :Chapter 10
00:54:03.657                             : :Chapter 11
00:57:08.550                             : :Chapter 12
00:59:48.710                             : :Chapter 13
01:05:27.965                             : :Chapter 14
01:14:35.470                             : :Chapter 15
01:25:20.073                             : :Chapter 16
01:32:20.284                             : :Chapter 17





                                                                                                                                                                                                       

                                                                                                                       
                                                                                                                                                                                                                                                        Teen.Wolf.1985.1080p.BluRay.x264.DTS-FGT.torrent (57.57 KB, 下载次数: 0)

回复

使用道具 举报

小黑屋|百度云资源论坛

本网站所有资源来自网络,如无意中侵犯了您的权益,请发邮件至 [email protected],立即清除相关链接

GMT+8, 2024-3-1 09:29 , Processed in 0.082115 second(s), 26 queries .

Powered by Discuz! X3.2

© 2001-2013 Comsenz Inc.

快速回复 返回顶部 返回列表