百度云资源论坛

 找回密码
 立即注册
搜索

[喜剧片] 留级之王 Van.Wilder.2002.1080p.BluRay.x264.DD5.1-FGT 7.4GB

[复制链接]
电影首发 发表于 2015-11-8 08:55:00 | 显示全部楼层 |阅读模式

译  名 留级之王
片  名 Van Wilder
年  代 2002
国  家 德国/美国
类  别 喜剧/爱情
语  言 英语
上映日期 2002-09-05
片  长 92 分钟/94 分钟(美国)
导  演 沃尔特·拜克 Walt Becker
主  演 瑞恩·雷诺兹 Ryan Reynolds
      塔拉·雷德 Tara Reid
      卡尔·潘 Kal Penn


简  介


  范•维尔德(瑞恩•雷诺兹 Ryan Reynolds 饰)迎来了他在库立吉学院的第七个新学年,这位留级之王是学院内的活跃人物,不定期拥有社团会长、校园运动发起者以及篮球社中场精神教父等多重身份。来自印度的交换生泰吉(卡尔•潘 Kal Penn 饰)羡慕美国学生的生活,于是投奔维尔德做了他的助理。维尔德的父亲不堪忍受儿子的不长进,毅然中断了对他的资助,原本风光的维尔德此时不得不为了两万美元分期交付的学费发愁。校刊记者葛文(塔拉•雷德 Tara Reid 饰)对维尔德大有兴趣,贴身采访撰写关于他的报道,困窘中的维尔德偶然接到有偿帮助组织舞会的要求,自此开始从事舞会经纪人以补贴学费,葛文的报道令维尔德声名鹊起,而两人的关系也越发密切,这激起了葛文男友的愤怒,他计划向维尔德发起报复……



Van.Wilder.2002.留级之王.双语字幕.HR-HDTV.AC3.1024X552.x264-人人影视制作.mkv (1.56 GB)

Video
ID                                       : 1
Format                                   : AVC
Format/Info                              : Advanced Video Codec
Format profile                           : [email protected]
Format settings, CABAC                   : Yes
Format settings, ReFrames                : 4 frames
Codec ID                                 : V_MPEG4/ISO/AVC
Duration                                 : 1h 33mn
Bit rate                                 : 10.8 Mbps
Width                                    : 1 920 pixels
Height                                   : 1 040 pixels
Display aspect ratio                     : 1.85:1
Frame rate mode                          : Constant
Frame rate                               : 23.976 fps
Color space                              : YUV
Chroma subsampling                       : 4:2:0
Bit depth                                : 8 bits
Scan type                                : Progressive
Bits/(Pixel*Frame)                       : 0.227
Stream size                              : 6.96 GiB (94%)
Writing library                          : x264 core 129 r2230+696+36 4446aa2 tMod+MixAQ [[email protected]:2:0 X86_64]
Encoding settings                        : cabac=1 / ref=4 / deblock=1:-3:-3 / analyse=0x3:0x113 / me=umh / subme=10 / psy=1 / fade_compensate=0.00 / psy_rd=1.00:0.00 / mixed_ref=1 / me_range=48 / chroma_me=1 / trellis=2 / 8x8dct=1 / cqm=0 / deadzone=21,11 / fast_pskip=0 / chroma_qp_offset=-2 / threads=6 / lookahead_threads=1 / sliced_threads=0 / nr=0 / decimate=0 / interlaced=0 / bluray_compat=0 / constrained_intra=0 / fgo=0 / bframes=7 / b_pyramid=2 / b_adapt=2 / b_bias=0 / direct=3 / weightb=1 / open_gop=0 / weightp=2 / keyint=240 / keyint_min=23 / scenecut=40 / intra_refresh=0 / rc=2pass / mbtree=0 / bitrate=10845 / ratetol=1.0 / qcomp=0.75 / qpmin=0 / qpmax=69 / qpstep=4 / cplxblur=20.0 / qblur=0.5 / ip_ratio=1.40 / pb_ratio=1.30 / aq=2 / aq-strength=1.00 / aq-sensitivity=10.00 / aq-ifactor=1.00 / aq-pfactor=1.00 / aq-bfactor=1.00 / aq2=0
Language                                 : English
Default                                  : Yes
Forced                                   : No
Color range                              : Limited
Color primaries                          : BT.709
Transfer characteristics                 : BT.709
Matrix coefficients                      : BT.709

Audio
ID                                       : 2
Format                                   : AC-3
Format/Info                              : Audio Coding 3
Mode extension                           : CM (complete main)
Format settings, Endianness              : Big
Codec ID                                 : A_AC3
Duration                                 : 1h 33mn
Bit rate mode                            : Constant
Bit rate                                 : 448 Kbps
Channel(s)                               : 6 channels
Channel positions                        : Front: L C R, Side: L R, LFE
Sampling rate                            : 48.0 KHz
Compression mode                         : Lossy
Stream size                              : 301 MiB (4%)
Language                                 : English
Default                                  : Yes
Forced                                   : No

Text
ID                                       : 3
Format                                   : UTF-8
Codec ID                                 : S_TEXT/UTF8
Codec ID/Info                            : UTF-8 Plain Text
Language                                 : English
Default                                  : No
Forced                                   : No

Menu
00:00:00.000                             : en:00:00:00.000
00:06:35.394                             : en:00:06:35.394
00:09:31.028                             : en:00:09:31.028
00:15:42.357                             : en:00:15:42.357
00:18:56.969                             : en:00:18:56.969
00:24:56.161                             : en:00:24:56.161
00:29:00.739                             : en:00:29:00.739
00:34:35.822                             : en:00:34:35.822
00:41:14.137                             : en:00:41:14.137
00:45:24.096                             : en:00:45:24.096
00:49:04.900                             : en:00:49:04.900
00:53:26.286                             : en:00:53:26.286
01:03:08.367                             : en:01:03:08.367
01:08:04.829                             : en:01:08:04.829
01:12:39.438                             : en:01:12:39.438
01:21:42.104                             : en:01:21:42.104





                                                                                                                                                                                                        

                                                                                                                        
                                                                                                                                                                                                                                                         Van.Wilder.2002.1080p.BluRay.x264.DD5.1-FGT.torrent (74.63 KB, 下载次数: 0)

回复

使用道具 举报

小黑屋|百度云资源论坛

本网站所有资源来自网络,如无意中侵犯了您的权益,请发邮件至 [email protected],立即清除相关链接

GMT+8, 2022-10-4 11:50 , Processed in 0.081282 second(s), 26 queries .

Powered by Discuz! X3.2

© 2001-2013 Comsenz Inc.

快速回复 返回顶部 返回列表