百度云资源论坛

 找回密码
 立即注册
搜索

[剧情片] 迷失东京/迷语东京 Lost.In.Translation.2003.1080p.BluRay.x264.DTS-FGT 7.89GB ... ...

[复制链接]
电影首发 发表于 2015-11-8 08:55:00 | 显示全部楼层 |阅读模式

译  名 迷失东京/爱情,不用翻译/迷语东京
片  名 Lost in Translation
年  代 2003
国  家 美国/日本
类  别 剧情/爱情
语  言 英语/日语/德语/法语
上映日期 2003-08-29(特柳赖德电影节)/2003-10-03(美国)
片  长 102 分钟
导  演 索菲亚·科波拉 Sofia Coppola
主  演 斯嘉丽·约翰逊 Scarlett Johansson
      比尔·默瑞 Bill Murray
      吉奥瓦尼·瑞比西 Giovanni Ribisi
      竹下明子 Akiko Takeshita
      安娜·法瑞丝 Anna Faris


简  介


  一切源自于无处不在的寂寞。当寂寞蔓延到头顶无法呼吸,过气电视明星鲍勃·哈里斯(比尔·默瑞 Bill Murray 饰),已为人妻的夏洛特(斯嘉丽·约翰逊 Scarlett Johansson 饰),年轻貌美的电影女演员凯莉(安娜·法瑞丝 Anna Faris 饰)在机缘巧合下在东京相遇。在这个不是故乡的陌生城市里,他们在豪华旅馆邂逅,不约而同的失眠,互相 陪伴,生活一方面仿佛变的缤纷起来,另一面却逐渐走向迷失,过气明星和为人妻的夏洛特能迎接他们二人思想和关系变化的挑战吗?冲破迷失或者身陷其中,让我们一起找寻答案。


获奖情况


  第76届奥斯卡金像奖 (2004)
  最佳影片(提名) 罗斯·卡兹 / 索菲亚·科波拉
  最佳导演(提名) 索菲亚·科波拉
  最佳男主角(提名) 比尔·默瑞
  最佳原创剧本 索菲亚·科波拉




Video
ID                                       : 1
Format                                   : AVC
Format/Info                              : Advanced Video Codec
Format profile                           : [email protected]
Format settings, CABAC                   : Yes
Format settings, ReFrames                : 4 frames
Codec ID                                 : V_MPEG4/ISO/AVC
Duration                                 : 1h 41mn
Bit rate                                 : 9 572 Kbps
Width                                    : 1 920 pixels
Height                                   : 1 040 pixels
Display aspect ratio                     : 1.85:1
Frame rate mode                          : Constant
Frame rate                               : 23.976 fps
Color space                              : YUV
Chroma subsampling                       : 4:2:0
Bit depth                                : 8 bits
Scan type                                : Progressive
Bits/(Pixel*Frame)                       : 0.200
Stream size                              : 6.66 GiB (84%)
Writing library                          : x264 core 138 r2358 9e941d1
Encoding settings                        : cabac=1 / ref=4 / deblock=1:-3:-3 / analyse=0x3:0x113 / me=umh / subme=11 / psy=1 / psy_rd=1.00:0.00 / mixed_ref=1 / me_range=64 / chroma_me=1 / trellis=2 / 8x8dct=1 / cqm=0 / deadzone=21,11 / fast_pskip=1 / chroma_qp_offset=-2 / threads=12 / lookahead_threads=2 / sliced_threads=0 / nr=0 / decimate=1 / interlaced=0 / bluray_compat=0 / constrained_intra=0 / bframes=8 / b_pyramid=2 / b_adapt=2 / b_bias=0 / direct=3 / weightb=1 / open_gop=0 / weightp=2 / keyint=240 / keyint_min=23 / scenecut=40 / intra_refresh=0 / rc_lookahead=80 / rc=2pass / mbtree=1 / bitrate=9572 / ratetol=1.0 / qcomp=0.60 / qpmin=10 / qpmax=51 / qpstep=4 / cplxblur=20.0 / qblur=0.5 / vbv_maxrate=35000 / vbv_bufsize=50000 / nal_hrd=none / ip_ratio=1.40 / aq=1:1.00
Language                                 : English
Default                                  : Yes
Forced                                   : No

Audio
ID                                       : 2
Format                                   : DTS
Format/Info                              : Digital Theater Systems
Mode                                     : 16
Format settings, Endianness              : Big
Codec ID                                 : A_DTS
Duration                                 : 1h 41mn
Bit rate mode                            : Constant
Bit rate                                 : 1 509 Kbps
Channel(s)                               : 6 channels
Channel positions                        : Front: L C R, Side: L R, LFE
Sampling rate                            : 48.0 KHz
Bit depth                                : 24 bits
Compression mode                         : Lossy
Stream size                              : 1.07 GiB (14%)
Language                                 : English
Default                                  : Yes
Forced                                   : No

Text #1
ID                                       : 3
Format                                   : PGS
Muxing mode                              : zlib
Codec ID                                 : S_HDMV/PGS
Codec ID/Info                            : Picture based subtitle format used on BDs/HD-DVDs
Language                                 : English
Default                                  : No
Forced                                   : No

Text #2
ID                                       : 4
Format                                   : PGS
Muxing mode                              : zlib
Codec ID                                 : S_HDMV/PGS
Codec ID/Info                            : Picture based subtitle format used on BDs/HD-DVDs
Language                                 : Spanish
Default                                  : No
Forced                                   : No

Text #3
ID                                       : 5
Format                                   : PGS
Muxing mode                              : zlib
Codec ID                                 : S_HDMV/PGS
Codec ID/Info                            : Picture based subtitle format used on BDs/HD-DVDs
Language                                 : French
Default                                  : No
Forced                                   : No

Menu
00:00:00.000                             : en:Chapter 1
00:01:09.569                             : en:Chapter 2
00:06:07.158                             : en:Chapter 3
00:08:30.426                             : en:Chapter 4
00:11:59.301                             : en:Chapter 5
00:16:05.214                             : en:Chapter 6
00:20:01.783                             : en:Chapter 7
00:26:15.740                             : en:Chapter 8
00:30:44.843                             : en:Chapter 9
00:36:39.655                             : en:Chapter 10
00:41:28.068                             : en:Chapter 11
00:48:24.026                             : en:Chapter 12
00:55:20.400                             : en:Chapter 13
00:58:35.637                             : en:Chapter 14
00:59:52.255                             : en:Chapter 15
01:05:54.575                             : en:Chapter 16
01:13:24.400                             : en:Chapter 17
01:17:34.107                             : en:Chapter 18
01:22:09.132                             : en:Chapter 19
01:24:21.848                             : en:Chapter 20
01:25:54.899                             : en:Chapter 21
01:29:08.384                             : en:Chapter 22
01:32:01.265                             : en:Chapter 23
01:35:57.418                             : en:Chapter 24
01:41:46.475                             : en:Chapter 25





                                                                                                                                                                                                       

                                                                                                                       
                                                                                                                                                                                                                                                        Lost.In.Translation.2003.1080p.BluRay.x264.DTS-FGT.torrent (79.55 KB, 下载次数: 0)

回复

使用道具 举报

小黑屋|百度云资源论坛

本网站所有资源来自网络,如无意中侵犯了您的权益,请发邮件至 [email protected],立即清除相关链接

GMT+8, 2022-9-29 11:27 , Processed in 0.088267 second(s), 26 queries .

Powered by Discuz! X3.2

© 2001-2013 Comsenz Inc.

快速回复 返回顶部 返回列表