百度云资源论坛

 找回密码
 立即注册
搜索

[剧情片] 午夜牛郎/午夜牛仔 Midnight.Cowboy.1969.1080p.BluRay.x264.DTS-FGT 13.5GB

[复制链接]
电影首发 发表于 2015-11-8 08:55:00 | 显示全部楼层 |阅读模式

译  名 午夜牛郎/午夜牛仔
片  名 Midnight Cowboy
年  代 1969
国  家 美国
类  别 剧情
语  言 英语/意大利语
上映日期 1969-06-16(美国)
片  长 113 分钟
导  演 约翰·施莱辛格 John Schlesinger
主  演 达斯汀·霍夫曼 Dustin Hoffman
      强·沃特 Jon Voight
      西尔维娅·迈尔斯 Sylvia Miles
      布伦达·瓦卡罗 Brenda Vaccaro
      巴纳德·休斯 Barnard Hughes
      鲁斯·怀特 Ruth White
      詹妮弗·绍特 Jennifer Salt
      Gary Owens
      John McGiver


简  介


  生活清贫的牛仔乔恩(乔恩·沃伊特 Jon Voight 饰)从老家来到纽约讨生活,他自认为风流倜傥,因此想在纽约当个男妓混口饭吃。当他第一天来到纽约时,就在大街上勾搭女人。不料,人地生疏的他生意不成反而亏了20块钱。沮丧不已的乔恩遇到了专靠骗点小钱为生的里佐(达斯汀·霍夫曼 Dustin Hoffman 饰),里佐骗乔恩说他认识一个男妓集团的首脑,但要收20元作为中介费。最后里佐只是把乔恩介绍给了一个同性恋的皮条客,愤怒不已的乔恩随后找到了里佐。里佐收留了无家可归的乔恩,两人渐渐成了无所不谈的好朋友。 寒冷的纽约冬天,两人过的十分辛酸,以至于衣食无着,里佐也没有钱买药治病
  里佐向往着迈阿密的生活,他邀请乔恩和他一起到迈阿密去闯世界。生活无着的两人这晚来到一家地下酒吧去碰运气,当乔恩终于搞到一单生意后,体力不支的里佐摔下了楼梯。奄奄一息的里佐此时最记挂的仍是迈阿密家乡的阳光,乔为了完成朋友的愿望,开始铤而走险。


获奖情况


  第42届奥斯卡金像奖 (1970)
  最佳影片 Jerome Hellman
  最佳导演 约翰·施莱辛格
  最佳男主角(提名) 强·沃特 / 达斯汀·霍夫曼
  最佳女配角(提名) 西尔维娅·迈尔斯
  最佳改编剧本 瓦尔度·绍特
  最佳剪辑(提名) Hugh A. Robertson




Video
ID                                       : 1
Format                                   : AVC
Format/Info                              : Advanced Video Codec
Format profile                           : [email protected]
Format settings, CABAC                   : Yes
Format settings, ReFrames                : 4 frames
Codec ID                                 : V_MPEG4/ISO/AVC
Duration                                 : 1h 53mn
Bit rate                                 : 15.5 Mbps
Width                                    : 1 920 pixels
Height                                   : 1 040 pixels
Display aspect ratio                     : 1.85:1
Frame rate mode                          : Constant
Frame rate                               : 23.976 fps
Color space                              : YUV
Chroma subsampling                       : 4:2:0
Bit depth                                : 8 bits
Scan type                                : Progressive
Bits/(Pixel*Frame)                       : 0.325
Stream size                              : 12.0 GiB (89%)
Writing library                          : x264 core 114 r1913 5fd3dce
Encoding settings                        : cabac=1 / ref=4 / deblock=1:-3:-3 / analyse=0x3:0x113 / me=umh / subme=10 / psy=1 / psy_rd=1.05:0.10 / mixed_ref=1 / me_range=48 / chroma_me=1 / trellis=2 / 8x8dct=1 / cqm=0 / deadzone=21,11 / fast_pskip=0 / chroma_qp_offset=-2 / threads=12 / sliced_threads=0 / nr=0 / decimate=1 / interlaced=0 / constrained_intra=0 / bframes=6 / b_pyramid=2 / b_adapt=2 / b_bias=0 / direct=3 / weightb=1 / open_gop=0 / weightp=2 / keyint=250 / keyint_min=23 / scenecut=40 / intra_refresh=0 / rc_lookahead=60 / rc=2pass / mbtree=1 / bitrate=15538 / ratetol=1.0 / qcomp=0.70 / qpmin=0 / qpmax=69 / qpstep=4 / cplxblur=20.0 / qblur=0.5 / vbv_maxrate=40000 / vbv_bufsize=30000 / nal_hrd=none / ip_ratio=1.40 / aq=1:0.90
Language                                 : English
Default                                  : Yes
Forced                                   : No

Audio
ID                                       : 2
Format                                   : DTS
Format/Info                              : Digital Theater Systems
Mode                                     : 16
Format settings, Endianness              : Big
Codec ID                                 : A_DTS
Duration                                 : 1h 53mn
Bit rate mode                            : Constant
Bit rate                                 : 1 509 Kbps
Channel(s)                               : 6 channels
Channel positions                        : Front: L C R, Side: L R, LFE
Sampling rate                            : 48.0 KHz
Bit depth                                : 24 bits
Compression mode                         : Lossy
Stream size                              : 1.19 GiB (9%)
Language                                 : English
Default                                  : Yes
Forced                                   : No

Text
ID                                       : 3
Format                                   : UTF-8
Codec ID                                 : S_TEXT/UTF8
Codec ID/Info                            : UTF-8 Plain Text
Language                                 : English
Default                                  : No
Forced                                   : No





                                                                                                                                                                                                       

                                                                                                                       
                                                                                                                                                                                                                                                        Midnight.Cowboy.1969.1080p.BluRay.x264.DTS-FGT.torrent (68.09 KB, 下载次数: 0)

回复

使用道具 举报

小黑屋|百度云资源论坛

本网站所有资源来自网络,如无意中侵犯了您的权益,请发邮件至 [email protected],立即清除相关链接

GMT+8, 2022-10-4 12:53 , Processed in 0.074352 second(s), 26 queries .

Powered by Discuz! X3.2

© 2001-2013 Comsenz Inc.

快速回复 返回顶部 返回列表