百度云资源论坛

 找回密码
 立即注册
搜索

[惊悚片] 新天师斗僵尸2 Fright.Night.2.2013.UNCUT.1080p.BluRay.x264-PFa 7.65GB

[复制链接]
电影首发 发表于 2015-11-7 08:46:00 | 显示全部楼层 |阅读模式

译  名 新天师斗僵尸2
片  名 Fright Night 2
年  代 2013
国  家 美国
类  别 喜剧/恐怖
语  言 英语
上映日期 2013-10-01(美国)
片  长 100分钟
导  演 Eduardo Rodríguez
主  演 吉米·莫瑞 Jaime Murray
      维尔·佩恩 Will Payne
      萨沙·帕金森 Sacha Parkinson
      Chris Waller
      John-Christian Bateman
      Sean Power


简  介


  高中生查理·布瑞斯特(维尔·佩恩 Will Payne 饰)随好友艾德(克里斯·威勒 Chris Waller 饰)来到以吸血鬼传说闻名于世的东欧国家罗马尼亚进行海外修学。在此期间,他希望能够取得前女友艾米(萨加·帕金森 Sacha Parkinson 饰)的谅解,两人能尽快复合,谁知却碰了一鼻子灰。在他们所在的学校里,客座教授格里·丹德里奇(吉米·莫瑞 Jaime Murray 饰)妖艳鬼魅,令人浮想联翩。查理层意外窥见丹德里奇对艾德的诱惑,也曾在幻觉中遭受莫大的惊吓。吸血鬼之说并非虚无缥缈,他和艾米全部意外成为吸血阴谋中最重要的一环。
  凶险恐怖的修学之旅,成为查理等人挥之不去的噩梦……




Video
ID                                       : 2
Format                                   : AVC
Format/Info                              : Advanced Video Codec
Format profile                           : [email protected]
Format settings, CABAC                   : Yes
Format settings, ReFrames                : 4 frames
Codec ID                                 : V_MPEG4/ISO/AVC
Duration                                 : 1h 39mn
Bit rate                                 : 9 460 Kbps
Width                                    : 1 920 pixels
Height                                   : 1 080 pixels
Display aspect ratio                     : 16:9
Frame rate mode                          : Constant
Frame rate                               : 23.976 fps
Color space                              : YUV
Chroma subsampling                       : 4:2:0
Bit depth                                : 8 bits
Scan type                                : Progressive
Bits/(Pixel*Frame)                       : 0.190
Stream size                              : 6.44 GiB (84%)
Writing library                          : x264 core 142 r2431 ac76440
Encoding settings                        : cabac=1 / ref=4 / deblock=1:0:0 / analyse=0x3:0x133 / me=umh / subme=8 / psy=1 / psy_rd=1.00:0.00 / mixed_ref=1 / me_range=16 / chroma_me=1 / trellis=1 / 8x8dct=1 / cqm=0 / deadzone=21,11 / fast_pskip=0 / chroma_qp_offset=-2 / threads=12 / lookahead_threads=2 / sliced_threads=0 / nr=0 / decimate=1 / interlaced=0 / bluray_compat=0 / constrained_intra=0 / bframes=3 / b_pyramid=2 / b_adapt=1 / b_bias=0 / direct=1 / weightb=1 / open_gop=0 / weightp=2 / keyint=250 / keyint_min=23 / scenecut=40 / intra_refresh=0 / rc_lookahead=40 / rc=2pass / mbtree=1 / bitrate=9460 / ratetol=1.0 / qcomp=0.60 / qpmin=0 / qpmax=69 / qpstep=4 / cplxblur=20.0 / qblur=0.5 / ip_ratio=1.40 / aq=1:1.00
Language                                 : English
Default                                  : Yes
Forced                                   : No

Audio
ID                                       : 1
Format                                   : DTS
Format/Info                              : Digital Theater Systems
Mode                                     : 16
Format settings, Endianness              : Big
Codec ID                                 : A_DTS
Duration                                 : 1h 39mn
Bit rate mode                            : Constant
Bit rate                                 : 1 509 Kbps
Channel(s)                               : 6 channels
Channel positions                        : Front: L C R, Side: L R, LFE
Sampling rate                            : 48.0 KHz
Bit depth                                : 24 bits
Compression mode                         : Lossy
Stream size                              : 1.05 GiB (14%)
Default                                  : Yes
Forced                                   : No





                                                                                                                                                                                                       

                                                                                                                       
                                                                                                                                                                                                                                                        Fright.Night.2.2013.UNCUT.1080p.BluRay.x264-PFa.torrent (77 KB, 下载次数: 0)

回复

使用道具 举报

小黑屋|百度云资源论坛

本网站所有资源来自网络,如无意中侵犯了您的权益,请发邮件至 [email protected],立即清除相关链接

GMT+8, 2022-9-29 11:33 , Processed in 0.072753 second(s), 26 queries .

Powered by Discuz! X3.2

© 2001-2013 Comsenz Inc.

快速回复 返回顶部 返回列表