百度云资源论坛

 找回密码
 立即注册
搜索

倒霉爱神/幸运之吻/交换运气 Just.My.Luck.2006.1080p.BluRay.x264.DTS-FGT 9.82GB .. ...

[复制链接]
电影首发 发表于 2015-11-7 08:46:00 | 显示全部楼层 |阅读模式

译  名 倒霉爱神/幸运之吻/交换运气
片  名 Just My Luck
年  代 2006
国  家 美国
类  别 喜剧/奇幻/爱情
语  言 英语
上映日期 2006-05-12
片  长 USA: 103 分钟
导  演 唐纳德·佩特瑞 Donald Petrie
主  演 琳赛·洛翰 Lindsay Lohan
      克里斯·派恩 Chris Pine
      萨米拉·阿姆斯特朗 Samaire Armstrong
      布丽·特纳 Bree Turner
      费松·拉夫 Faizon Love


简  介


  世界上有这么极端的两种人。一种是运气极好的,就像艾什莉(琳德赛•洛汗饰)。从高中开始,艾什莉就备受上帝眷顾。买刮刮乐一定会中头奖,就连在繁忙的纽约街头叫出租车,都会停下来好几辆。好运的光环一直围绕着她,而这次,为唱片巨头举办化装舞会,则给她带来了升职的绝妙机会。
  而清洁工杰克(克里斯•派恩饰)则是另一个极端。只要他出现的地方,必定乌云笼罩,医院,警察局,中毒急救中心更是他常去的地方。然而,乐观的他却总是能坦然的面对一切厄运。并执着的要把自己的乐队推荐给唱片大王。
  奇妙的,在化装舞会,两个人相遇了。意外的一吻,改变了两个人命运的轮盘,运气向两个相反的极端发展。于是,艾什莉急切的想要找到害她走霉运的陌生人,要回自己的运气。却没有想到,自己竟渐渐爱上了这个男孩……


Video
ID                                       : 1
Format                                   : AVC
Format/Info                              : Advanced Video Codec
Format profile                           : [email protected]
Format settings, CABAC                   : Yes
Format settings, ReFrames                : 4 frames
Codec ID                                 : V_MPEG4/ISO/AVC
Duration                                 : 1h 42mn
Bit rate                                 : 12.2 Mbps
Width                                    : 1 920 pixels
Height                                   : 1 040 pixels
Display aspect ratio                     : 1.85:1
Frame rate mode                          : Constant
Frame rate                               : 23.976 fps
Color space                              : YUV
Chroma subsampling                       : 4:2:0
Bit depth                                : 8 bits
Scan type                                : Progressive
Bits/(Pixel*Frame)                       : 0.255
Stream size                              : 8.54 GiB (87%)
Writing library                          : x264 core 118 r2085 8a62835
Encoding settings                        : cabac=1 / ref=4 / deblock=1:-2:-2 / analyse=0x3:0x113 / me=umh / subme=11 / psy=1 / psy_rd=1.00:0.25 / mixed_ref=1 / me_range=48 / chroma_me=1 / trellis=2 / 8x8dct=1 / cqm=0 / deadzone=6,6 / fast_pskip=0 / chroma_qp_offset=-5 / threads=24 / sliced_threads=0 / nr=0 / decimate=0 / interlaced=0 / bluray_compat=0 / constrained_intra=0 / bframes=8 / b_pyramid=2 / b_adapt=2 / b_bias=0 / direct=3 / weightb=1 / open_gop=0 / weightp=2 / keyint=360 / keyint_min=1 / scenecut=40 / intra_refresh=0 / rc_lookahead=60 / rc=2pass / mbtree=1 / bitrate=12219 / ratetol=1.0 / qcomp=0.80 / qpmin=0 / qpmax=69 / qpstep=4 / cplxblur=20.0 / qblur=0.5 / vbv_maxrate=40000 / vbv_bufsize=30000 / nal_hrd=none / ip_ratio=1.10 / aq=2:0.50
Language                                 : English
Default                                  : Yes
Forced                                   : No

Audio
ID                                       : 2
Format                                   : DTS
Format/Info                              : Digital Theater Systems
Mode                                     : 16
Format settings, Endianness              : Big
Codec ID                                 : A_DTS
Duration                                 : 1h 42mn
Bit rate mode                            : Constant
Bit rate                                 : 1 509 Kbps
Channel(s)                               : 6 channels
Channel positions                        : Front: L C R, Side: L R, LFE
Sampling rate                            : 48.0 KHz
Bit depth                                : 24 bits
Compression mode                         : Lossy
Stream size                              : 1.08 GiB (11%)
Language                                 : English
Default                                  : Yes
Forced                                   : No

Text
ID                                       : 3
Format                                   : UTF-8
Codec ID                                 : S_TEXT/UTF8
Codec ID/Info                            : UTF-8 Plain Text
Language                                 : English
Default                                  : No
Forced                                   : No

Menu
00:00:00.000                             : :01. Good Luck, Bad Luck (Main Titles)
00:08:01.773                             : :02. The Big Pitch
00:13:47.535                             : :03. A Date for the Dragon Lady
00:16:05.256                             : :04. The Janitor\'s Band
00:18:46.834                             : :05. One Week
00:20:50.207                             : :06. I\'m Not Lucky
00:23:13.142                             : :07.The Perfect Party
00:26:20.829                             : :08. It\'s In the Cards
00:27:57.801                             : :09. The Dancing Fool
00:30:35.167                             : :10. Kiss of Fate
00:32:12.430                             : :11. Change of Luck
00:36:51.960                             : :12. Eight Minutes
00:38:34.145                             : :13. The Bad-Luck Girl
00:40:42.732                             : :14. New Digs
00:44:05.017                             : :15. Stolen Luck
00:46:04.553                             : :16. It\'s All About a Kiss
00:52:00.951                             : :17. Lucky Me
00:55:34.289                             : :18. S.O.L
00:59:15.469                             : :19. The New Job
01:02:12.437                             : :20. Unlucky People
01:05:28.424                             : :21. Too Close for Comfort
01:11:19.567                             : :22. The Loser & the Laundry
01:14:51.404                             : :23. Maggie\'s Song
01:17:11.544                             : :24. Hello, Fabulous Life
01:22:30.779                             : :25. Mcfly\'s Misfortunes
01:27:17.607                             : :26. A Kiss for Good Luck
01:32:00.265                             : :27. For Your Own Good
01:35:55.541                             : :28. Luck & Karma / End Titles





                                                                                                                                                                                                       

                                                                                                                       
                                                                                                                                                                                                                                                        Just.My.Luck.2006.1080p.BluRay.x264.DTS-FGT.torrent (98.77 KB, 下载次数: 0)

回复

使用道具 举报

小黑屋|百度云资源论坛

本网站所有资源来自网络,如无意中侵犯了您的权益,请发邮件至 [email protected],立即清除相关链接

GMT+8, 2022-10-4 12:25 , Processed in 0.124893 second(s), 26 queries .

Powered by Discuz! X3.2

© 2001-2013 Comsenz Inc.

快速回复 返回顶部 返回列表