百度云资源论坛

 找回密码
 立即注册
搜索

[剧情片] [猩红山峰/血色庄园/腥红山庄][HDTS-AVI/MKV/1.63G/3.4G][英语无字][新片抢先看] ... ...

[复制链接]
电影首发 发表于 2015-11-6 19:39:00 | 显示全部楼层 |阅读模式

译  名 猩红山峰/血色庄园(港)/腥红山庄(台)
片  名 Crimson Peak
年  代 2015
国  家 美国/加拿大
类  别 剧情/悬疑/奇幻/惊悚
语  言 英语
上映日期 2015-10-16(美国)
片  长 119分钟
导  演 吉尔莫·德尔·托罗 Guillermo del Toro
主  演 米娅·华希科沃斯卡 Mia Wasikowska
      汤姆·希德勒斯顿 Tom Hiddleston
      杰西卡·查斯坦 Jessica Chastain
      查理·汉纳姆 Charlie Hunnam
      吉姆·比弗 Jim Beaver
      道格·琼斯 Doug Jones
      伯恩·戈曼 Burn Gorman
      哈维尔·博特 Javier Botet
      莱斯利·霍普 Leslie Hope
      金伯利·苏·莫里 Kimberly-Sue Murray
      布鲁斯·加里 Bruce Gray
      罗恩·博蒂塔 Ron Bottitta


简  介


  业余恐怖小说家伊迪丝·库欣(米娅·华希科沃斯卡 Mia Wasikowska 饰),与父亲卡特·库欣(吉姆·比弗 Jim Beaver 饰)生活在美国水牛城。她拒绝了青梅竹马的艾伦·麦克医生(查理·汉纳姆 Charlie Hunnam 饰)的追求,与迷人的英国发明家托马斯·夏普爵士(汤姆·希德勒斯顿 Tom Hiddleston 饰)相爱。伊迪丝的父亲离奇去世后,托马斯带她回到了位于英格兰西北部坎布里亚郡的一栋哥德式的家传百年别墅,由于此别墅建在深红色矿土之上,故有“猩红山庄”之称。
  伊迪丝察觉到丈夫不对劲,更觉得丈夫的姐姐露西尔·夏普(杰西卡·查斯坦 Jessica Chastain 饰)对她存有敌意....而这栋阴森可怖的别墅,更是鬼影幢幢,伊迪丝决定找出“猩红山庄”不为人知的秘密……





http://www.imdb.com/title/tt2554274/


In the aftermath of a family tragedy, an aspiring author is torn between love for her childhood friend and the temptation of a mysterious outsider. Trying to escape the ghosts of her past, she is swept away to a house that breathes, bleeds - and remembers.

Director: Guillermo del Toro
Writers: Guillermo del Toro, Matthew Robbins
Stars: Mia Wasikowska, Jessica Chastain, Tom Hiddleston
Genres: Drama | Fantasy | Horror | Mystery | Romance | Thriller
Country: USA | Canada
Language: English



Crimson.Peak.2015.HD-TS.XVID.AC3.HQ.Hive-CM8

Thx Hive

CM8 Doing It Right The First Time

Sources:

Video: 1080p HDCAM Incoming big THX
Audio: Sweet Line Big Thx to S4NDM4N

Notes:

quality was awesome on it, best of the best

Encode:

added bit brightness and fixed rgb,removed some flicker slightly.
Audio as usual line from S4NDM4N, thx for always getting quality stuff for me
lipsynced to my video

got very nice
will def. do me till retail
enjoy

Video: 720x400 @bitrate 2066
Audio: English Line AC3 2.0 Stereo
Sample: yes included


Screener time is very near, if you can get hold of a disc or file msg me
thx


http://www.imdb.com/title/tt2554274/


General
Complete name : Crimson.Peak.2015.HD-TS.XVID.AC3.HQ.Hive-CM8.avi
Format : AVI
Format/Info : Audio Video Interleave
File size : 1.63 GiB
Duration : 1h 53mn
Overall bit rate : 2 066 Kbps
Writing application : Nandub v1.0rc2
Writing library : Nandub build 1853/release

Video
ID : 0
Format : MPEG-4 Visual
Format profile : Advanced [email protected]
Format settings, BVOP : 2
Format settings, QPel : Yes
Format settings, GMC : No warppoints
Format settings, Matrix : Default (H.263)
Muxing mode : Packed bitstream
Codec ID : XVID
Codec ID/Hint : XviD
Duration : 1h 53mn
Bit rate : 1 798 Kbps
Width : 720 pixels
Height : 400 pixels
Display aspect ratio : 16:9
Frame rate : 29.970 fps
Color space : YUV
Chroma subsampling : 4:2:0
Bit depth : 8 bits
Scan type : Progressive
Compression mode : Lossy
Bits/(Pixel*Frame) : 0.208
Stream size : 1.42 GiB (87%)
Writing library : XviD 1.2.1 (UTC 2008-12-04)

Audio
ID : 1
Format : AC-3
Format/Info : Audio Coding 3
Mode extension : CM (complete main)
Format settings, Endianness : Big
Codec ID : 2000
Duration : 1h 53mn
Bit rate mode : Constant
Bit rate : 256 Kbps
Channel(s) : 2 channels
Channel positions : Front: L R
Sampling rate : 48.0 KHz
Bit depth : 16 bits
Compression mode : Lossy
Stream size : 207 MiB (12%)
Alignment : Split accross interleaves
Interleave, duration : 33 ms (1.00 video frame)
Interleave, preload duration : 500 ms


Greetz

iNCOMiNG,Izzy,MenaceIISociety,jiinx,SiMPLE,CherryBomb
ranbailey,ViSiON,UnKnOwN,YanKeeS,COPYxRIGHT,THC,VAiN,ACAB,DRs
LKRG,Kingstoner,SiMPLE,TiTAN,cadance,PLAYNOW
Unevano,BigVik,Rapeseed,SAFC,goldadvance,KaN1vE,Pinnz,Wayne,HiGH
SeeN,jtr,Limey,ICONiK,TED,rkofan,mrtoke09
Mr Hive


LOOKING FOR ANYTHING YOU WANT TO LOOK AND SOUND BETTER

COME FIND US WE DONT BITE
[email protected]



不喜勿下 仅供尝鲜 2版
                                                                                                                                                                                                       

                                                                                                                       
                                                                                                                                                                                                                                                        Crimson.Peak.2015.HD-TS.XVID.AC3.HQ.Hive-CM8.torrent (132.18 KB, 下载次数: 0)

回复

使用道具 举报

小黑屋|百度云资源论坛

本网站所有资源来自网络,如无意中侵犯了您的权益,请发邮件至 [email protected],立即清除相关链接

GMT+8, 2022-10-2 00:51 , Processed in 0.085902 second(s), 26 queries .

Powered by Discuz! X3.2

© 2001-2013 Comsenz Inc.

快速回复 返回顶部 返回列表