百度云资源论坛

 找回密码
 立即注册
搜索

[科幻片] [蚁人/蚁侠][WEB-MP4/1080P/2.55GB][中文英文双语字幕][漫威最新超级英雄来袭] ... ...

[复制链接]
电影首发 发表于 2015-11-6 19:25:00 | 显示全部楼层 |阅读模式

译  名 蚁人/蚁侠(港)
片  名 Ant-Man
年  代 2015
国  家 美国
类  别 动作/科幻/冒险
语  言 英语
上映日期 2015-07-17(美国)/2015-10-16(中国大陆)
片  长 117分钟
导  演 佩顿·里德 Peyton Reed
主  演 保罗·路德 Paul Rudd
      迈克尔·道格拉斯 Michael Douglas
      伊万杰琳·莉莉 Evangeline Lilly
      寇瑞·斯托尔 Corey Stoll
      迈克尔·佩纳 Michael Peña
      大卫·达斯马齐连 David Dastmalchian
      朱迪·格雷尔 Judy Greer
      鲍比·坎纳瓦尔 Bobby Cannavale
      约翰·斯拉特里 John Slattery
      伍德·哈里斯 Wood Harris
      T.I.
      海莉·阿特维尔 Hayley Atwell
      瓦内萨·罗斯 Vanessa Ross
      马丁·唐文 Martin Donovan
      乔·克里斯特 Joe Chrest
      艾比·莱德·弗特森 Abby Ryder Fortson
      安东尼·麦凯 Anthony Mackie
      加勒特·莫里斯 Garrett Morris
      尼尔·汉博格 Neil Hamburger
      鲁德·哈利特 Rod Hallett
      斯坦·李 Stan Lee
      克里斯·埃文斯 Chris Evans
      塞巴斯蒂安·斯坦 Sebastian Stan

简  介

  前工程师斯科特(保罗·路德 Paul Rudd 饰)由于劫富济贫进了监狱,出狱后的他为了争取看望女儿的权利又走上了盗窃之路。没想到一次意外的偷盗事件让他成为了新一代“蚁人”,老蚁人汉克.皮姆博士(迈克尔·道格拉斯 Michael Douglas 饰)成为了他的导师,可皮姆博士的女儿霍普(伊万杰琳·莉莉 Evangeline Lilly 饰)却并不看好他。但是危机迫在眉睫,为了对付强大的敌人拯救世界,斯科特不得不叫来自己的一帮狐朋狗友帮助自己完成一个不可能完成的任务。而取得任务的成功也是斯科特挽回女儿的关键,屌丝能否逆袭就看最后一击。

                General
Complete name                  : Ant-Man.2015.1080p.WEB-DL.x264.AAC2.0-SHOW.mp4
Format                         : MPEG-4
Format profile                 : Base Media
Codec ID                       : isom
File size                      : 2.56 GiB
Duration                       : 1h 56mn
Overall bit rate mode          : Variable
Overall bit rate               : 3 130 Kbps
Encoded date                   : UTC 2015-11-06 08:26:56
Tagged date                    : UTC 2015-11-06 08:26:56

Video
ID                             : 1
Format                         : AVC
Format/Info                    : Advanced Video Codec
Format profile                 : [email protected]
Format settings, CABAC         : No
Format settings, ReFrames      : 2 frames
Codec ID                       : avc1
Codec ID/Info                  : Advanced Video Coding
Duration                       : 1h 56mn
Source duration                : 2mn 27s
Bit rate                       : 3 000 Kbps
Maximum bit rate               : 20.0 Mbps
Width                          : 1 920 pixels
Height                         : 1 080 pixels
Display aspect ratio           : 16:9
Frame rate mode                : Constant
Frame rate                     : 23.976 fps
Color space                    : YUV
Chroma subsampling             : 4:2:0
Bit depth                      : 8 bits
Scan type                      : Progressive
Bits/(Pixel*Frame)             : 0.060
Stream size                    : 2.45 GiB (96%)
Source stream size             : 2.45 GiB (96%)
Writing library                : x264 core 120 r2164 da19765
Encoding settings              : cabac=0 / ref=2 / deblock=1:-3:-3 / analyse=0x1:0x131 / me=umh / subme=7 / psy=1 / psy_rd=1.00:0.00 / mixed_ref=1 / me_range=16 / chroma_me=1 / trellis=0 / 8x8dct=0 / cqm=0 / deadzone=21,11 / fast_pskip=1 / chroma_qp_offset=-2 / threads=12 / sliced_threads=0 / nr=0 / decimate=1 / interlaced=0 / bluray_compat=0 / constrained_intra=0 / bframes=0 / weightp=0 / keyint=240 / keyint_min=23 / scenecut=40 / intra_refresh=0 / rc_lookahead=40 / rc=2pass / mbtree=1 / bitrate=3000 / ratetol=1.0 / qcomp=0.60 / qpmin=10 / qpmax=51 / qpstep=4 / cplxblur=20.0 / qblur=0.5 / ip_ratio=1.40 / aq=1:1.00
Encoded date                   : UTC 2015-11-06 08:26:56
Tagged date                    : UTC 2015-11-06 08:28:10
mdhd_Duration                  : 7019767

Audio
ID                             : 2
Format                         : AAC
Format/Info                    : Advanced Audio Codec
Format profile                 : LC
Codec ID                       : 40
Duration                       : 1h 56mn
Bit rate mode                  : Variable
Bit rate                       : 128 Kbps
Maximum bit rate               : 224 Kbps
Channel(s)                     : 2 channels
Channel positions              : Front: L R
Sampling rate                  : 48.0 KHz
Compression mode               : Lossy
Stream size                    : 107 MiB (4%)
Encoded date                   : UTC 2015-11-06 08:27:59
Tagged date                    : UTC 2015-11-06 08:28:10







                                                                                                                                                                                                       

                                                                                                                       
                                                                                                                                                                                                                                                        Ant-Man.2015.1080p.WEB-DL.x264.AAC2.0-SHOW.torrent (26.84 KB, 下载次数: 0)

回复

使用道具 举报

小黑屋|百度云资源论坛

本网站所有资源来自网络,如无意中侵犯了您的权益,请发邮件至 [email protected],立即清除相关链接

GMT+8, 2022-9-27 02:10 , Processed in 0.080416 second(s), 26 queries .

Powered by Discuz! X3.2

© 2001-2013 Comsenz Inc.

快速回复 返回顶部 返回列表