百度云资源论坛

 找回密码
 立即注册
搜索

夹缝求生/怪诞家族 Running.with.Scissors.2006.1080p.BluRay.x264.DTS-FGT 10.91GB . ...

[复制链接]
电影首发 发表于 2015-11-6 08:39:00 | 显示全部楼层 |阅读模式

译  名 夹缝求生/怪诞家族(港)/拿着剪刀奔跑/一刀未剪的童年/剪刀边缘
片  名 Running With Scissors
年  代 2006
国  家 美国
类  别 喜剧/剧情
语  言 英语
上映日期 2006-10-27
片  长 USA: 116 分钟/USA: 122 分钟(DVD)/Argentina: 116 分钟
导  演 瑞恩·墨菲 Ryan Murphy
主  演 安妮特·贝宁 Annette Bening
      格温妮斯·帕特洛 Gwyneth Paltrow
      布莱恩·考克斯 Brian Cox
      埃文·蕾切尔·伍德 Evan Rachel Wood
      约瑟夫·费因斯 Joseph Fiennes
      亚历克·鲍德温 Alec Baldwin
      约瑟夫·克罗斯 Joseph Cross


简  介


  6岁的奥古斯丁(约瑟夫·克罗斯 Joseph Cross 饰)是一个早熟的孩子,在他充满了童稚的目光里,原本应该幸福美满的家庭早已分崩离析。身为奥古斯丁的母亲,迪尔丽德(安妮特·贝宁 Annette Bening 饰)并没有将儿子的需求放在第一位,在她的眼中,自己诗人的身份和在诗坛的地位是最重要的,可实际上,甚至没有人听闻过“诗人”迪尔丽德的大名。自己的妻子整天神神叨叨,无计可施的诺曼(亚历克·鲍德温 Alec Baldwin 饰)选择了无视,失意的他只能向酒精寻求安慰。
  精神医生芬奇(布莱恩·考克斯 Brian Cox 饰)的到来将这个家的问题推向了新的层面,本来意在修复家庭裂痕的他居然成为了导致离婚的罪魁祸首。更令奥古斯丁感到头痛的是,母亲竟然将自己托付给了这个疯疯癫癫的蒙古大夫。



Video
ID                                       : 1
Format                                   : AVC
Format/Info                              : Advanced Video Codec
Format profile                           : [email protected]
Format settings, CABAC                   : Yes
Format settings, ReFrames                : 4 frames
Codec ID                                 : V_MPEG4/ISO/AVC
Duration                                 : 2h 1mn
Bit rate                                 : 11.5 Mbps
Width                                    : 1 920 pixels
Height                                   : 800 pixels
Display aspect ratio                     : 2.40:1
Frame rate mode                          : Constant
Frame rate                               : 23.976 fps
Color space                              : YUV
Chroma subsampling                       : 4:2:0
Bit depth                                : 8 bits
Scan type                                : Progressive
Bits/(Pixel*Frame)                       : 0.312
Stream size                              : 9.41 GiB (86%)
Writing library                          : x264 core 144 r96 40bb568
Encoding settings                        : cabac=1 / ref=4 / deblock=1:-2:-2 / analyse=0x3:0x113 / me=umh / subme=7 / psy=1 / psy_rd=1.00:0.15 / mixed_ref=1 / me_range=16 / chroma_me=1 / trellis=1 / 8x8dct=1 / cqm=0 / deadzone=21,11 / fast_pskip=1 / chroma_qp_offset=-3 / threads=12 / lookahead_threads=3 / sliced_threads=0 / nr=0 / decimate=1 / interlaced=0 / bluray_compat=0 / constrained_intra=0 / bframes=3 / b_pyramid=2 / b_adapt=2 / b_bias=0 / direct=3 / weightb=1 / open_gop=0 / weightp=2 / keyint=250 / keyint_min=25 / scenecut=40 / intra_refresh=0 / rc_lookahead=50 / rc=abr / mbtree=1 / bitrate=11500 / ratetol=1.0 / qcomp=0.60 / qpmin=0 / qpmax=69 / qpstep=4 / vbv_maxrate=31250 / vbv_bufsize=31250 / nal_hrd=none / filler=0 / ip_ratio=1.40 / aq=1:1.00
Language                                 : English
Default                                  : Yes
Forced                                   : No

Audio
ID                                       : 2
Format                                   : DTS
Format/Info                              : Digital Theater Systems
Mode                                     : 16
Format settings, Endianness              : Big
Codec ID                                 : A_DTS
Duration                                 : 2h 1mn
Bit rate mode                            : Constant
Bit rate                                 : 1 509 Kbps
Channel(s)                               : 6 channels
Channel positions                        : Front: L C R, Side: L R, LFE
Sampling rate                            : 48.0 KHz
Bit depth                                : 16 bits
Compression mode                         : Lossy
Stream size                              : 1.28 GiB (12%)
Language                                 : English
Default                                  : Yes
Forced                                   : No

Text #1
ID                                       : 3
Format                                   : UTF-8
Codec ID                                 : S_TEXT/UTF8
Codec ID/Info                            : UTF-8 Plain Text
Language                                 : English
Default                                  : Yes
Forced                                   : No

Text #2
ID                                       : 4
Format                                   : PGS
Muxing mode                              : zlib
Codec ID                                 : S_HDMV/PGS
Codec ID/Info                            : Picture based subtitle format used on BDs/HD-DVDs
Language                                 : English
Default                                  : No
Forced                                   : No

Menu
00:00:00.000                             : en:00:00:00.000
00:08:59.539                             : en:00:08:59.539
00:14:10.600                             : en:00:14:10.600
00:24:24.755                             : en:00:24:24.755
00:33:51.863                             : en:00:33:51.863
00:42:13.531                             : en:00:42:13.531
00:49:53.199                             : en:00:49:53.199
00:57:18.143                             : en:00:57:18.143
01:04:57.310                             : en:01:04:57.310
01:13:49.800                             : en:01:13:49.800
01:21:36.350                             : en:01:21:36.350
01:24:41.868                             : en:01:24:41.868
01:33:06.247                             : en:01:33:06.247
01:37:09.824                             : en:01:37:09.824
01:45:38.749                             : en:01:45:38.749
01:52:15.979                             : en:01:52:15.979






                                                                                                                                                                                                       

                                                                                                                       
                                                                                                                                                                                                                                                        Running.with.Scissors.2006.1080p.BluRay.x264.DTS-FGT.torrent (55.18 KB, 下载次数: 0)

回复

使用道具 举报

小黑屋|百度云资源论坛

本网站所有资源来自网络,如无意中侵犯了您的权益,请发邮件至 [email protected],立即清除相关链接

GMT+8, 2022-10-4 13:46 , Processed in 0.082940 second(s), 26 queries .

Powered by Discuz! X3.2

© 2001-2013 Comsenz Inc.

快速回复 返回顶部 返回列表