百度云资源论坛

 找回密码
 立即注册
搜索

[剧情片] 重整旗鼓/反复嚼 Resurrecting.the.Champ.2007.1080p.BluRay.x264.DTS-FGT 10GB ... ...

[复制链接]
电影首发 发表于 2015-11-6 08:39:00 | 显示全部楼层 |阅读模式

译  名 重整旗鼓/反复嚼
片  名 Resurrecting the Champ
年  代 2007
国  家 美国
类  别 剧情/运动
语  言 英语
上映日期 2007-08-24
片  长 112 分钟
导  演 罗德·拉里 Rod Lurie
主  演 塞缪尔·杰克逊 Samuel L. Jackson
      乔什·哈奈特 Josh Hartnett
      凯瑟琳·莫里斯 Kathryn Morris
      泰瑞·海切尔 Teri Hatcher


简  介


  他是一个落魄的拳手,曾经的辉煌年代早已过去,他也不愿再提,如今他推着一辆超市手推车流浪在街头,连一个名字都没有,同伴们给他起了个外号——反复嚼(塞缪尔·杰克逊 Samuel L. Jackson 饰)。艾里克(乔什·哈奈特 Josh Hartnett 饰)是一个不太成功的记者,除了被老板派遣去采访一些毫无价值的体育新闻外,他一事无成。
  一场斗殴将这两个看似毫无交集的男人联系到了一起,艾里克将反复嚼从小混混的拳脚下救出时也发现了他惊人的拳击天赋,他认出了这个脏兮兮的老头竟然就是曾经红极一时的拳击天才,而在纷繁的传言中,他早已死于非命。一个得天独厚的机会近在眼前,艾里克知道,这将是一个多么重量级的新闻报道,而他也将就此一举成名。


Video
ID                                       : 1
Format                                   : AVC
Format/Info                              : Advanced Video Codec
Format profile                           : [email protected]
Format settings, CABAC                   : Yes
Format settings, ReFrames                : 4 frames
Codec ID                                 : V_MPEG4/ISO/AVC
Duration                                 : 1h 54mn
Bit rate                                 : 10.7 Mbps
Nominal bit rate                         : 11.5 Mbps
Width                                    : 1 920 pixels
Height                                   : 816 pixels
Display aspect ratio                     : 2.35:1
Frame rate mode                          : Constant
Frame rate                               : 23.976 fps
Color space                              : YUV
Chroma subsampling                       : 4:2:0
Bit depth                                : 8 bits
Scan type                                : Progressive
Bits/(Pixel*Frame)                       : 0.286
Stream size                              : 8.60 GiB (86%)
Writing library                          : x264 core 144 r96 40bb568
Encoding settings                        : cabac=1 / ref=4 / deblock=1:-2:-2 / analyse=0x3:0x113 / me=umh / subme=7 / psy=1 / psy_rd=1.00:0.15 / mixed_ref=1 / me_range=16 / chroma_me=1 / trellis=1 / 8x8dct=1 / cqm=0 / deadzone=21,11 / fast_pskip=1 / chroma_qp_offset=-3 / threads=12 / lookahead_threads=3 / sliced_threads=0 / nr=0 / decimate=1 / interlaced=0 / bluray_compat=0 / constrained_intra=0 / bframes=3 / b_pyramid=2 / b_adapt=2 / b_bias=0 / direct=3 / weightb=1 / open_gop=0 / weightp=2 / keyint=250 / keyint_min=25 / scenecut=40 / intra_refresh=0 / rc_lookahead=50 / rc=abr / mbtree=1 / bitrate=11500 / ratetol=1.0 / qcomp=0.60 / qpmin=0 / qpmax=69 / qpstep=4 / vbv_maxrate=31250 / vbv_bufsize=31250 / nal_hrd=none / filler=0 / ip_ratio=1.40 / aq=1:1.00
Language                                 : English
Default                                  : Yes
Forced                                   : No

Audio
ID                                       : 2
Format                                   : DTS
Format/Info                              : Digital Theater Systems
Mode                                     : 16
Format settings, Endianness              : Big
Codec ID                                 : A_DTS
Duration                                 : 1h 54mn
Bit rate mode                            : Constant
Bit rate                                 : 1 509 Kbps
Channel(s)                               : 6 channels
Channel positions                        : Front: L C R, Side: L R, LFE
Sampling rate                            : 48.0 KHz
Bit depth                                : 16 bits
Compression mode                         : Lossy
Stream size                              : 1.21 GiB (12%)
Language                                 : English
Default                                  : Yes
Forced                                   : No

Text
ID                                       : 3
Format                                   : PGS
Muxing mode                              : zlib
Codec ID                                 : S_HDMV/PGS
Codec ID/Info                            : Picture based subtitle format used on BDs/HD-DVDs
Language                                 : English
Default                                  : No
Forced                                   : No

Menu
00:00:00.000                             : en:Chapter 01
00:04:59.716                             : en:Chapter 02
00:10:00.433                             : en:Chapter 03
00:14:59.732                             : en:Chapter 04
00:19:59.907                             : en:Chapter 05
00:24:59.956                             : en:Chapter 06
00:30:00.507                             : en:Chapter 07
00:35:00.181                             : en:Chapter 08
00:40:00.523                             : en:Chapter 09
00:44:59.697                             : en:Chapter 10
00:50:00.122                             : en:Chapter 11
00:55:00.130                             : en:Chapter 12
00:59:59.721                             : en:Chapter 13
01:05:00.271                             : en:Chapter 14
01:09:59.612                             : en:Chapter 15
01:15:00.037                             : en:Chapter 16
01:20:00.295                             : en:Chapter 17
01:24:59.969                             : en:Chapter 18
01:30:00.228                             : en:Chapter 19
01:35:00.111                             : en:Chapter 20
01:40:00.494                             : en:Chapter 21
01:45:00.419                             : en:Chapter 22
01:49:59.759                             : en:Chapter 23





                                                                                                                                                                                                       

                                                                                                                       
                                                                                                                                                                                                                                                        Resurrecting.the.Champ.2007.1080p.BluRay.x264.DTS-FGT.torrent (50.63 KB, 下载次数: 0)

回复

使用道具 举报

小黑屋|百度云资源论坛

本网站所有资源来自网络,如无意中侵犯了您的权益,请发邮件至 [email protected],立即清除相关链接

GMT+8, 2022-10-4 12:40 , Processed in 0.084208 second(s), 26 queries .

Powered by Discuz! X3.2

© 2001-2013 Comsenz Inc.

快速回复 返回顶部 返回列表