百度云资源论坛

 找回密码
 立即注册
搜索

[恐怖片] 食人族大屠杀 Eaten.Alive.1976.1080p.BluRay.x264.DD1.0-FGT 8.23GB

[复制链接]
电影首发 发表于 2015-11-6 08:39:00 | 显示全部楼层 |阅读模式

译  名 食人族大屠杀
片  名 Eaten Alive
年  代 1977
国  家 美国
类  别 恐怖
语  言 英语
上映日期 1977
导  演 Tobe Hooper


简  介


  导演走的是“猎奇电影”路线,力图在片中创造一个仿真的食人族,并以“假纪录片”的方式让饰演食人族的演员逼真地演出“肚破肠流”的恶心镜头。由于拍得太逼真,以至导演德奥达托因本片面临法律起诉。他无法让意大利政府相信“本片纯属虚构”,间接证明本片在特技化妆、摄影、剪接等方面的确表现出凌厉的效果。票房爆冷的美国独立电影《女巫布莱尔》就是模仿本片的“纪录片”模式而[1]  成功。




Video
ID                                       : 1
Format                                   : AVC
Format/Info                              : Advanced Video Codec
Format profile                           : [email protected]
Format settings, CABAC                   : Yes
Format settings, ReFrames                : 4 frames
Codec ID                                 : V_MPEG4/ISO/AVC
Duration                                 : 1h 31mn
Bit rate                                 : 12.5 Mbps
Width                                    : 1 920 pixels
Height                                   : 1 036 pixels
Display aspect ratio                     : 1.85:1
Frame rate mode                          : Constant
Frame rate                               : 23.976 fps
Color space                              : YUV
Chroma subsampling                       : 4:2:0
Bit depth                                : 8 bits
Scan type                                : Progressive
Bits/(Pixel*Frame)                       : 0.262
Stream size                              : 7.78 GiB (95%)
Writing library                          : x264 core 148 r2638 7599210
Encoding settings                        : cabac=1 / ref=4 / deblock=1:-1:-1 / analyse=0x3:0x133 / me=umh / subme=10 / psy=1 / psy_rd=1.04:0.15 / mixed_ref=1 / me_range=48 / chroma_me=1 / trellis=2 / 8x8dct=1 / cqm=0 / deadzone=21,11 / fast_pskip=1 / chroma_qp_offset=-3 / threads=12 / lookahead_threads=2 / sliced_threads=0 / nr=0 / decimate=1 / interlaced=0 / bluray_compat=0 / constrained_intra=0 / bframes=7 / b_pyramid=2 / b_adapt=2 / b_bias=0 / direct=3 / weightb=1 / open_gop=0 / weightp=2 / keyint=240 / keyint_min=23 / scenecut=40 / intra_refresh=0 / rc_lookahead=50 / rc=2pass / mbtree=1 / bitrate=12500 / ratetol=1.0 / qcomp=0.60 / qpmin=0 / qpmax=30 / qpstep=4 / cplxblur=20.0 / qblur=0.5 / vbv_maxrate=30000 / vbv_bufsize=38000 / nal_hrd=none / filler=0 / ip_ratio=1.40 / aq=3:1.05
Language                                 : English
Default                                  : Yes
Forced                                   : No

Audio
ID                                       : 2
Format                                   : AC-3
Format/Info                              : Audio Coding 3
Mode extension                           : CM (complete main)
Format settings, Endianness              : Big
Codec ID                                 : A_AC3
Duration                                 : 1h 31mn
Bit rate mode                            : Constant
Bit rate                                 : 448 Kbps
Channel(s)                               : 1 channel
Channel positions                        : Front: C
Sampling rate                            : 48.0 KHz
Compression mode                         : Lossy
Stream size                              : 292 MiB (3%)
Language                                 : English
Default                                  : Yes
Forced                                   : No

Text
ID                                       : 3
Format                                   : PGS
Muxing mode                              : zlib
Codec ID                                 : S_HDMV/PGS
Codec ID/Info                            : Picture based subtitle format used on BDs/HD-DVDs
Language                                 : English
Default                                  : Yes
Forced                                   : No

Menu
00:00:00.000                             : en:00:00:00.000
00:06:07.701                             : en:00:06:07.701
00:13:47.994                             : en:00:13:47.994
00:21:43.385                             : en:00:21:43.385
00:27:29.773                             : en:00:27:29.773
00:35:27.250                             : en:00:35:27.250
00:44:13.734                             : en:00:44:13.734
00:51:56.405                             : en:00:51:56.405
01:01:25.765                             : en:01:01:25.765
01:07:18.785                             : en:01:07:18.785
01:15:32.319                             : en:01:15:32.319
01:20:26.530                             : en:01:20:26.530





                                                                                                                                                                                                       

                                                                                                                       
                                                                                                                                                                                                                                                        Eaten.Alive.1976.1080p.BluRay.x264.DD1.0-FGT.torrent (82.89 KB, 下载次数: 0)

回复

使用道具 举报

小黑屋|百度云资源论坛

本网站所有资源来自网络,如无意中侵犯了您的权益,请发邮件至 [email protected],立即清除相关链接

GMT+8, 2024-3-1 09:08 , Processed in 0.144022 second(s), 26 queries .

Powered by Discuz! X3.2

© 2001-2013 Comsenz Inc.

快速回复 返回顶部 返回列表