百度云资源论坛

 找回密码
 立即注册
搜索

[恐怖片] 惊叫不止 Scream.and.Scream.Again.1970.1080p.BluRay.x264.DTS-FGT 8.77GB

[复制链接]
电影首发 发表于 2015-11-6 08:39:00 | 显示全部楼层 |阅读模式

译  名 惊叫不止
片  名 Scream and Scream Again
年  代 1970
国  家 英国
类  别 恐怖/科幻/犯罪/悬疑/惊悚
语  言 英语
上映日期 1970-02-13
片  长 USA: 95 分钟
导  演 Gordon Hessler
主  演 文森特·普莱斯 Vincent Price


简  介


  一部“剥削电影”(Exploitation Film)的启蒙之作,片中的杀人犯喜欢把“受害者”丢到镪水池子里化掉。


Video
ID                                       : 1
Format                                   : AVC
Format/Info                              : Advanced Video Codec
Format profile                           : [email protected]
Format settings, CABAC                   : Yes
Format settings, ReFrames                : 4 frames
Codec ID                                 : V_MPEG4/ISO/AVC
Duration                                 : 1h 34mn
Bit rate                                 : 12.5 Mbps
Width                                    : 1 916 pixels
Height                                   : 1 040 pixels
Display aspect ratio                     : 1.85:1
Frame rate mode                          : Constant
Frame rate                               : 23.976 fps
Color space                              : YUV
Chroma subsampling                       : 4:2:0
Bit depth                                : 8 bits
Scan type                                : Progressive
Bits/(Pixel*Frame)                       : 0.262
Stream size                              : 8.09 GiB (92%)
Writing library                          : x264 core 148 r2638 7599210
Encoding settings                        : cabac=1 / ref=4 / deblock=1:-2:-2 / analyse=0x3:0x133 / me=umh / subme=10 / psy=1 / psy_rd=1.04:0.15 / mixed_ref=1 / me_range=48 / chroma_me=1 / trellis=2 / 8x8dct=1 / cqm=0 / deadzone=21,11 / fast_pskip=1 / chroma_qp_offset=-3 / threads=12 / lookahead_threads=2 / sliced_threads=0 / nr=750 / decimate=1 / interlaced=0 / bluray_compat=0 / constrained_intra=0 / bframes=9 / b_pyramid=2 / b_adapt=2 / b_bias=0 / direct=3 / weightb=1 / open_gop=0 / weightp=2 / keyint=240 / keyint_min=23 / scenecut=40 / intra_refresh=0 / rc_lookahead=50 / rc=2pass / mbtree=1 / bitrate=12500 / ratetol=1.0 / qcomp=0.60 / qpmin=0 / qpmax=30 / qpstep=4 / cplxblur=20.0 / qblur=0.5 / vbv_maxrate=30000 / vbv_bufsize=38000 / nal_hrd=none / filler=0 / ip_ratio=1.40 / aq=3:1.05
Language                                 : English
Default                                  : Yes
Forced                                   : No

Audio
ID                                       : 2
Format                                   : DTS
Format/Info                              : Digital Theater Systems
Mode                                     : 16
Format settings, Endianness              : Big
Codec ID                                 : A_DTS
Duration                                 : 1h 34mn
Bit rate mode                            : Constant
Bit rate                                 : 768 Kbps
Channel(s)                               : 1 channel
Channel positions                        : Front: C
Sampling rate                            : 48.0 KHz
Bit depth                                : 24 bits
Compression mode                         : Lossy
Stream size                              : 519 MiB (6%)
Language                                 : English
Default                                  : Yes
Forced                                   : No

Text
ID                                       : 3
Format                                   : PGS
Muxing mode                              : zlib
Codec ID                                 : S_HDMV/PGS
Codec ID/Info                            : Picture based subtitle format used on BDs/HD-DVDs
Language                                 : English
Default                                  : Yes
Forced                                   : No

Menu
00:00:00.000                             : en:00:00:00.000
00:04:22.137                             : en:00:04:22.137
00:07:58.478                             : en:00:07:58.478
00:12:38.174                             : en:00:12:38.174
00:16:57.767                             : en:00:16:57.767
00:19:55.653                             : en:00:19:55.653
00:23:41.003                             : en:00:23:41.003
00:26:34.176                             : en:00:26:34.176
00:32:32.367                             : en:00:32:32.367
00:35:11.401                             : en:00:35:11.401
00:41:33.783                             : en:00:41:33.783
00:43:59.387                             : en:00:43:59.387
00:48:24.235                             : en:00:48:24.235
00:53:06.308                             : en:00:53:06.308
00:56:04.361                             : en:00:56:04.361
01:00:05.060                             : en:01:00:05.060
01:04:23.026                             : en:01:04:23.026
01:08:43.202                             : en:01:08:43.202
01:12:11.619                             : en:01:12:11.619
01:17:11.585                             : en:01:17:11.585
01:21:50.531                             : en:01:21:50.531
01:24:59.803                             : en:01:24:59.803
01:27:30.620                             : en:01:27:30.620
01:32:20.660                             : en:01:32:20.660





                                                                                                                                                                                                       

                                                                                                                       
                                                                                                                                                                                                                                                        Scream.and.Scream.Again.1970.1080p.BluRay.x264.DTS-FGT.torrent (88.33 KB, 下载次数: 0)

回复

使用道具 举报

小黑屋|百度云资源论坛

本网站所有资源来自网络,如无意中侵犯了您的权益,请发邮件至 [email protected],立即清除相关链接

GMT+8, 2022-10-4 12:48 , Processed in 0.092881 second(s), 26 queries .

Powered by Discuz! X3.2

© 2001-2013 Comsenz Inc.

快速回复 返回顶部 返回列表