百度云资源论坛

 找回密码
 立即注册
搜索

[动作片] 龙门客栈 Dragon.Inn.1967.1080p.BluRay.x264-FAPCAVE 7.65GB

[复制链接]
电影首发 发表于 2015-11-6 08:39:00 | 显示全部楼层 |阅读模式

译  名 龙门客栈
片  名 龍門客棧
年  代 1967
国  家 台湾
类  别 动作/冒险/武侠/古装
语  言 汉语普通话
上映日期 1967-10-21(台湾)
片  长 112分钟
导  演 胡金铨 King Hu
主  演 上官灵凤 Lingfeng Shangguan
      石隽 Chun Shih
      苗天 Tien Miao
      徐枫 Feng Hsu
      韩英杰 Ying-Chieh Han
      田鹏 Peng Tien


简  介


  明朝中叶,宦官当权,兵部尚书于谦遭陷害入狱,满门抄斩,只剩下一儿一女被押送塞外龙门充军。东厂太监曹少钦(白鹰 饰)意欲斩草除根,派人截杀两个孩子,被于谦旧部朱骥阻拦。曹少钦又派心腹皮绍棠(苗天 饰)和毛宗宪(韩英杰 饰)赶到出关必经之地龙门客栈拦截。其时义士萧少镃(石隽 饰)也赶赴客栈与栈主会合商议搭救忠良之后,朱骥与其女扮男装的妹妹朱辉(上官灵凤 饰)也赶到客栈,三路人马碰头,怀着各自目的,试探彼此身份,很快变成一场混战,此时曹少钦也正飞速赶来龙门客栈,武功极高的他是义士们的最后宿敌……




Video
ID                                       : 1
Format                                   : AVC
Format/Info                              : Advanced Video Codec
Format profile                           : [email protected]
Format settings, CABAC                   : Yes
Format settings, ReFrames                : 5 frames
Codec ID                                 : V_MPEG4/ISO/AVC
Duration                                 : 1h 51mn
Bit rate                                 : 9 192 Kbps
Width                                    : 1 920 pixels
Height                                   : 816 pixels
Display aspect ratio                     : 2.35:1
Frame rate mode                          : Constant
Frame rate                               : 23.976 fps
Color space                              : YUV
Chroma subsampling                       : 4:2:0
Bit depth                                : 8 bits
Scan type                                : Progressive
Bits/(Pixel*Frame)                       : 0.245
Stream size                              : 7.00 GiB (92%)
Writing library                          : x264 core 148 r2638 7599210
Encoding settings                        : cabac=1 / ref=5 / deblock=1:0:0 / analyse=0x3:0x133 / me=umh / subme=7 / psy=1 / psy_rd=1.00:0.00 / mixed_ref=1 / me_range=16 / chroma_me=1 / trellis=1 / 8x8dct=1 / cqm=0 / deadzone=21,11 / fast_pskip=0 / chroma_qp_offset=-2 / threads=12 / lookahead_threads=2 / sliced_threads=0 / nr=0 / decimate=1 / interlaced=0 / bluray_compat=0 / constrained_intra=0 / bframes=3 / b_pyramid=2 / b_adapt=2 / b_bias=0 / direct=3 / weightb=1 / open_gop=0 / weightp=2 / keyint=250 / keyint_min=23 / scenecut=40 / intra_refresh=0 / rc_lookahead=50 / rc=2pass / mbtree=1 / bitrate=9192 / ratetol=1.0 / qcomp=0.60 / qpmin=0 / qpmax=69 / qpstep=4 / cplxblur=20.0 / qblur=0.5 / ip_ratio=1.40 / aq=1:1.00
Language                                 : English
Default                                  : Yes
Forced                                   : No
DURATION                                 : 01:51:18.797000000
NUMBER_OF_FRAMES                         : 160131
NUMBER_OF_BYTES                          : 7674323023
_STATISTICS_WRITING_APP                  : mkvmerge v7.7.0 (\'Six Voices\') 32bit built on Feb 28 2015 23:23:00
_STATISTICS_WRITING_DATE_UTC             : 2015-10-28 11:38:02
_STATISTICS_TAGS                         : BPS DURATION NUMBER_OF_FRAMES NUMBER_OF_BYTES

Audio
ID                                       : 2
Format                                   : AC-3
Format/Info                              : Audio Coding 3
Mode extension                           : CM (complete main)
Format settings, Endianness              : Big
Codec ID                                 : A_AC3
Duration                                 : 1h 51mn
Bit rate mode                            : Constant
Bit rate                                 : 640 Kbps
Channel(s)                               : 1 channel
Channel positions                        : Front: C
Sampling rate                            : 48.0 KHz
Compression mode                         : Lossy
Stream size                              : 510 MiB (7%)
Language                                 : Chinese
Default                                  : Yes
Forced                                   : No

Text
ID                                       : 3
Format                                   : UTF-8
Codec ID                                 : S_TEXT/UTF8
Codec ID/Info                            : UTF-8 Plain Text
Language                                 : English
Default                                  : Yes
Forced                                   : No

Menu
00:00:00.000                             : en:00:00:00.000
00:09:09.716                             : en:00:09:09.716
00:16:47.715                             : en:00:16:47.715
00:27:46.248                             : en:00:27:46.248
00:37:09.269                             : en:00:37:09.269
00:46:54.687                             : en:00:46:54.687
00:55:55.894                             : en:00:55:55.894
01:01:26.057                             : en:01:01:26.057
01:14:24.418                             : en:01:14:24.418
01:22:48.630                             : en:01:22:48.630
01:33:16.674                             : en:01:33:16.674




                                                                                                                                                                                                       

                                                                                                                       
                                                                                                                                                                                                                                                        Dragon.Inn.1967.1080p.BluRay.x264-FAPCAVE.torrent (76.94 KB, 下载次数: 0)

回复

使用道具 举报

小黑屋|百度云资源论坛

本网站所有资源来自网络,如无意中侵犯了您的权益,请发邮件至 [email protected],立即清除相关链接

GMT+8, 2022-10-2 00:49 , Processed in 0.086759 second(s), 26 queries .

Powered by Discuz! X3.2

© 2001-2013 Comsenz Inc.

快速回复 返回顶部 返回列表