百度云资源论坛

 找回密码
 立即注册
搜索

[冒险片] 星战迷友 Fanboys.2008.1080p.BluRay.x264.DTS-FGT 7.03GB

[复制链接]
电影首发 发表于 2015-11-5 08:41:00 | 显示全部楼层 |阅读模式

译  名 星战迷友
片  名 Fanboys
年  代 2008
国  家 美国
类  别 冒险/喜剧/剧情
语  言 英语
上映日期 2009-02-06
片  长 USA: 90 分钟
导  演 凯尔·纽曼 Kyle Newman
主  演 萨姆·亨廷顿 Sam Huntington
      克里斯·马奎特 Chris Marquette
      丹·福勒 Dan Fogler
      杰伊·巴鲁切尔 Jay Baruchel
      克里斯汀·贝尔 Kristen Bell
      塞斯·罗根 Seth Rogen


简  介


  1998年,《星球大战》系列即将归来,星战迷们为这消息所深深震撼。巴特勒(萨姆•亨廷顿 Sam Huntington 饰)曾有三个同为星战迷的好友,如今他为父亲的汽车销售行整日忙碌,与哈切(丹•福勒 Dan Fogler 饰)、利诺斯(克里斯•马奎特 Chris Marquette 饰)、温多斯(杰伊•巴鲁切尔 Jay Baruchel 饰)不再有往日的紧密友谊。某日,利诺斯被查出罹患癌症,只剩下几个月的生命,四个好友终于为此再次团聚,一同前往乔治•卢卡斯的天行者牧场,意图盗取《星球大战》的拷贝先睹为快。一路上,他们经历了同《星际迷航》粉丝的混战、牢狱之苦和飞车党俱乐部中的迷幻药体验,好友佐伊的到来令他们的组合更加强大,前方的旅途依然艰难,但任何事情都不能阻止这班星战迷友勇往直前……




Video
ID                                       : 1
Format                                   : AVC
Format/Info                              : Advanced Video Codec
Format profile                           : [email protected]
Format settings, CABAC                   : Yes
Format settings, ReFrames                : 4 frames
Codec ID                                 : V_MPEG4/ISO/AVC
Duration                                 : 1h 29mn
Bit rate                                 : 9 718 Kbps
Width                                    : 1 920 pixels
Height                                   : 1 080 pixels
Display aspect ratio                     : 16:9
Frame rate mode                          : Constant
Frame rate                               : 23.976 fps
Color space                              : YUV
Chroma subsampling                       : 4:2:0
Bit depth                                : 8 bits
Scan type                                : Progressive
Bits/(Pixel*Frame)                       : 0.195
Stream size                              : 5.94 GiB (85%)
Writing library                          : x264 core 80 r1376M 3feaec2
Encoding settings                        : cabac=1 / ref=4 / deblock=1:-4:-4 / analyse=0x3:0x113 / me=umh / subme=10 / psy=1 / psy_rd=1.0:0.0 / mixed_ref=1 / me_range=64 / chroma_me=1 / trellis=2 / 8x8dct=1 / cqm=0 / deadzone=21,11 / fast_pskip=1 / chroma_qp_offset=-2 / threads=12 / sliced_threads=0 / nr=0 / decimate=1 / mbaff=0 / constrained_intra=0 / bframes=5 / b_pyramid=2 / b_adapt=2 / b_bias=0 / direct=2 / wpredb=1 / wpredp=2 / keyint=250 / keyint_min=25 / scenecut=40 / rc_lookahead=50 / rc=2pass / mbtree=1 / bitrate=9718 / ratetol=1.0 / qcomp=0.80 / qpmin=10 / qpmax=51 / qpstep=4 / cplxblur=20.0 / qblur=0.5 / vbv_maxrate=38000 / vbv_bufsize=30000 / ip_ratio=1.40 / aq=1:0.00
Language                                 : English
Default                                  : Yes
Forced                                   : No

Audio
ID                                       : 2
Format                                   : DTS
Format/Info                              : Digital Theater Systems
Mode                                     : 16
Format settings, Endianness              : Big
Codec ID                                 : A_DTS
Duration                                 : 1h 29mn
Bit rate mode                            : Constant
Bit rate                                 : 1 509 Kbps
Channel(s)                               : 6 channels
Channel positions                        : Front: L C R, Side: L R, LFE
Sampling rate                            : 48.0 KHz
Bit depth                                : 24 bits
Compression mode                         : Lossy
Stream size                              : 968 MiB (13%)
Language                                 : English
Default                                  : Yes
Forced                                   : No

Text
ID                                       : 3
Format                                   : UTF-8
Codec ID                                 : S_TEXT/UTF8
Codec ID/Info                            : UTF-8 Plain Text
Language                                 : English
Default                                  : No
Forced                                   : No





                                                                                                                                                                                                       

                                                                                                                       
                                                                                                                                                                                                                                                        Fanboys.2008.1080p.BluRay.x264.DTS-FGT.torrent (70.88 KB, 下载次数: 0)

回复

使用道具 举报

小黑屋|百度云资源论坛

本网站所有资源来自网络,如无意中侵犯了您的权益,请发邮件至 [email protected],立即清除相关链接

GMT+8, 2022-9-27 01:52 , Processed in 0.100411 second(s), 26 queries .

Powered by Discuz! X3.2

© 2001-2013 Comsenz Inc.

快速回复 返回顶部 返回列表