百度云资源论坛

 找回密码
 立即注册
搜索

[动作片] 模范警察 One.Good.Cop.1991.1080p.BluRay.x264.DTS-FGT 7.65GB

[复制链接]
电影首发 发表于 2015-11-5 08:41:00 | 显示全部楼层 |阅读模式

译  名 模范警察
片  名 One Good Cop
年  代 1991
国  家 美国
类  别 动作/犯罪/剧情/惊悚
语  言 英语
上映日期 1991-05-03
片  长 114 分钟/UK: 100 分钟/Argentina: 105 分钟
导  演 海伍德 古尔德 (Heywood Gould)
主  演 迈克尔·基顿 Michael Keaton
      蕾妮·罗素 Rene Russo
      安东尼·拉帕格利亚 Anthony LaPaglia
      本杰明·布拉特 Benjamin Bratt


简  介


  阿蒂·路易斯(迈克尔·基顿)是一个警察局侦探谁相信他的工作,爱他的妻子丽塔(雷内),并支持他的同伴史蒂夫diroma(安东尼拉帕格)。经过努力,暴力在一天的工作和杰拉德安慰对方,虽然饱受伤,他们“还活着”。


他是一个鳏夫,有三个女儿。他死在工作岗位上的加勒特(戴维·米奇灰色)在人质的情况。杰拉德的女儿玛利亚(恩·庄士敦),巴巴拉(瑞亚silver-smith),和卡罗(布莱尔斯旺森)留下的孤儿没有亲戚的转向。


Video
ID                                       : 1
Format                                   : AVC
Format/Info                              : Advanced Video Codec
Format profile                           : [email protected]
Format settings, CABAC                   : Yes
Format settings, ReFrames                : 4 frames
Codec ID                                 : V_MPEG4/ISO/AVC
Duration                                 : 1h 44mn
Bit rate                                 : 8 960 Kbps
Width                                    : 1 920 pixels
Height                                   : 1 040 pixels
Display aspect ratio                     : 1.85:1
Frame rate mode                          : Constant
Frame rate                               : 23.976 fps
Color space                              : YUV
Chroma subsampling                       : 4:2:0
Bit depth                                : 8 bits
Scan type                                : Progressive
Bits/(Pixel*Frame)                       : 0.187
Stream size                              : 6.39 GiB (84%)
Writing library                          : x264 core 128 r2216 198a7ea
Encoding settings                        : cabac=1 / ref=4 / deblock=1:0:0 / analyse=0x3:0x133 / me=umh / subme=7 / psy=1 / psy_rd=1.00:0.00 / mixed_ref=1 / me_range=16 / chroma_me=1 / trellis=1 / 8x8dct=1 / cqm=0 / deadzone=21,11 / fast_pskip=0 / chroma_qp_offset=-2 / threads=12 / lookahead_threads=2 / sliced_threads=0 / nr=0 / decimate=1 / interlaced=0 / bluray_compat=0 / constrained_intra=0 / bframes=3 / b_pyramid=2 / b_adapt=1 / b_bias=0 / direct=1 / weightb=1 / open_gop=0 / weightp=2 / keyint=250 / keyint_min=23 / scenecut=40 / intra_refresh=0 / rc_lookahead=40 / rc=2pass / mbtree=1 / bitrate=8960 / ratetol=1.0 / qcomp=0.60 / qpmin=0 / qpmax=69 / qpstep=4 / cplxblur=20.0 / qblur=0.5 / ip_ratio=1.40 / aq=1:1.00
Language                                 : English
Default                                  : Yes
Forced                                   : No

Audio
ID                                       : 2
Format                                   : DTS
Format/Info                              : Digital Theater Systems
Mode                                     : 16
Format settings, Endianness              : Big
Codec ID                                 : A_DTS
Duration                                 : 1h 44mn
Bit rate mode                            : Constant
Bit rate                                 : 1 509 Kbps
Channel(s)                               : 2 channels
Channel positions                        : Front: L R
Sampling rate                            : 48.0 KHz
Bit depth                                : 24 bits
Compression mode                         : Lossy
Stream size                              : 1.10 GiB (14%)
Language                                 : English
Default                                  : Yes
Forced                                   : No

Text
ID                                       : 3
Format                                   : UTF-8
Codec ID                                 : S_TEXT/UTF8
Codec ID/Info                            : UTF-8 Plain Text
Language                                 : English
Default                                  : No
Forced                                   : No

Menu
00:00:00.000                             : en:00:00:00.000
00:04:33.773                             : en:00:04:33.773
00:13:38.985                             : en:00:13:38.985
00:27:31.817                             : en:00:27:31.817
00:36:46.996                             : en:00:36:46.996
00:42:49.859                             : en:00:42:49.859
00:49:23.794                             : en:00:49:23.794
00:59:59.888                             : en:00:59:59.888
01:10:05.701                             : en:01:10:05.701
01:16:27.416                             : en:01:16:27.416
01:25:01.638                             : en:01:25:01.638
01:39:33.593                             : en:01:39:33.593





                                                                                                                                                                                                       

                                                                                                                       
                                                                                                                                                                                                                                                        One.Good.Cop.1991.1080p.BluRay.x264.DTS-FGT.torrent (77.09 KB, 下载次数: 0)

回复

使用道具 举报

小黑屋|百度云资源论坛

本网站所有资源来自网络,如无意中侵犯了您的权益,请发邮件至 [email protected],立即清除相关链接

GMT+8, 2022-10-7 11:38 , Processed in 0.109477 second(s), 26 queries .

Powered by Discuz! X3.2

© 2001-2013 Comsenz Inc.

快速回复 返回顶部 返回列表