百度云资源论坛

 找回密码
 立即注册
搜索

[喜剧片] 情场玩咖/英超有情人 Playing.for.Keeps.2012.1080p.BluRay.x264.DTS-FGT 11GB ... ...

[复制链接]
电影首发 发表于 2015-11-5 08:41:00 | 显示全部楼层 |阅读模式

译  名 情场玩咖/英超有情人(港)/情场大玩咖(台)/绿茵场/幸福绝杀球
片  名 Playing for Keeps
年  代 2012
国  家 美国
类  别 喜剧/爱情/运动
语  言 英语
上映日期 2012-12-07(美国)
片  长 106分钟
导  演 加布里尔·穆奇诺 Gabriele Muccino
主  演 杰拉德·巴特勒 Gerard Butler
      杰西卡·贝尔 Jessica Biel
      凯瑟琳·泽塔-琼斯 Catherine Zeta-Jones
      丹尼斯·奎德 Dennis Quaid
      乌玛·瑟曼 Uma Thurman
      朱迪·格雷尔 Judy Greer
      詹姆士·塔珀 James Tupper
      Noah Lomax


简  介


  乔治(杰拉德·巴特勒 Gerard Butler 饰)是一名足球运动员,曾经的风光岁月已然成为了过去,如今再也无人问津的他只好退出了绿茵场,重新回到了家庭之中。尽管生活上丰衣足食,但退役后的乔治始终觉得生命中缺少了一点什么,巧的是,乔治儿子的学校里有一只足球队,正好缺少一个教练,这个差事便落到了无所事事的乔治头上。
  对于乔治来说,带领一帮小孩子踢足球并不难,真正难以招架的,是这些小队员的母亲们。面对乔治,这些如狼似虎的女人们发起了激烈的进攻,无不希望能够和这位英俊迷人的足球教练发生点什么。在应付这些女人的同时,乔治还得想办法修复自己和家庭之间常年冷淡的关系,面对无孔不入的诱惑,乔治能够坚守他的节操吗?


获奖情况


  第33届金酸莓奖 (2013)
  最差女配角(提名) 杰西卡·贝尔


  第15届美国青少年选择奖 (2013)
  最佳爱情片女演员(提名) 杰西卡·贝尔






Video
ID                                       : 1
Format                                   : AVC
Format/Info                              : Advanced Video Codec
Format profile                           : [email protected]
Format settings, CABAC                   : Yes
Format settings, ReFrames                : 5 frames
Codec ID                                 : V_MPEG4/ISO/AVC
Duration                                 : 1h 45mn
Bit rate                                 : 13.1 Mbps
Width                                    : 1 920 pixels
Height                                   : 800 pixels
Display aspect ratio                     : 2.40:1
Frame rate mode                          : Constant
Frame rate                               : 23.976 fps
Color space                              : YUV
Chroma subsampling                       : 4:2:0
Bit depth                                : 8 bits
Scan type                                : Progressive
Bits/(Pixel*Frame)                       : 0.356
Stream size                              : 9.67 GiB (88%)
Writing library                          : x264 core 129 r2245 bc13772
Encoding settings                        : cabac=1 / ref=5 / deblock=1:-3:-3 / analyse=0x3:0x113 / me=tesa / subme=10 / psy=1 / psy_rd=1.10:0.05 / mixed_ref=1 / me_range=24 / chroma_me=1 / trellis=2 / 8x8dct=1 / cqm=0 / deadzone=21,11 / fast_pskip=0 / chroma_qp_offset=-3 / threads=12 / lookahead_threads=2 / sliced_threads=0 / nr=0 / decimate=1 / interlaced=0 / bluray_compat=0 / constrained_intra=0 / bframes=7 / b_pyramid=2 / b_adapt=2 / b_bias=0 / direct=3 / weightb=1 / open_gop=0 / weightp=2 / keyint=250 / keyint_min=23 / scenecut=40 / intra_refresh=0 / rc_lookahead=60 / rc=crf / mbtree=0 / crf=17.0 / qcomp=0.60 / qpmin=0 / qpmax=69 / qpstep=4 / vbv_maxrate=50000 / vbv_bufsize=62500 / crf_max=0.0 / nal_hrd=none / ip_ratio=1.40 / pb_ratio=1.30 / aq=2:0.90
Language                                 : English
Default                                  : Yes
Forced                                   : No
Color range                              : Limited
Color primaries                          : BT.709
Transfer characteristics                 : BT.709
Matrix coefficients                      : BT.709

Audio
ID                                       : 2
Format                                   : DTS
Format/Info                              : Digital Theater Systems
Mode                                     : 16
Format settings, Endianness              : Big
Codec ID                                 : A_DTS
Duration                                 : 1h 45mn
Bit rate mode                            : Constant
Bit rate                                 : 1 509 Kbps
Channel(s)                               : 6 channels
Channel positions                        : Front: L C R, Side: L R, LFE
Sampling rate                            : 48.0 KHz
Bit depth                                : 24 bits
Compression mode                         : Lossy
Stream size                              : 1.11 GiB (10%)
Language                                 : English
Default                                  : Yes
Forced                                   : No

Text
ID                                       : 3
Format                                   : UTF-8
Codec ID                                 : S_TEXT/UTF8
Codec ID/Info                            : UTF-8 Plain Text
Language                                 : English
Default                                  : No
Forced                                   : No

Menu
00:00:00.000                             : en:00:00:00.000
00:04:36.818                             : en:00:04:36.818
00:09:16.639                             : en:00:09:16.639
00:14:39.587                             : en:00:14:39.587
00:21:55.689                             : en:00:21:55.689
00:26:34.343                             : en:00:26:34.343
00:34:23.895                             : en:00:34:23.895
00:41:06.964                             : en:00:41:06.964
00:48:30.825                             : en:00:48:30.825
00:56:45.652                             : en:00:56:45.652
01:05:11.074                             : en:01:05:11.074
01:11:21.903                             : en:01:11:21.903
01:19:30.724                             : en:01:19:30.724
01:25:00.887                             : en:01:25:00.887
01:31:49.838                             : en:01:31:49.838
01:37:32.889                             : en:01:37:32.889





                                                                                                                                                                                                       

                                                                                                                       
                                                                                                                                                                                                                                                        Playing.for.Keeps.2012.1080p.BluRay.x264.DTS-FGT.torrent (55.6 KB, 下载次数: 0)

回复

使用道具 举报

小黑屋|百度云资源论坛

本网站所有资源来自网络,如无意中侵犯了您的权益,请发邮件至 [email protected],立即清除相关链接

GMT+8, 2024-7-15 19:59 , Processed in 0.106745 second(s), 26 queries .

Powered by Discuz! X3.2

© 2001-2013 Comsenz Inc.

快速回复 返回顶部 返回列表