百度云资源论坛

 找回密码
 立即注册
搜索

[动作片] 太阳的囚徒 Prisoners.of.the.Sun.2013.1080p.BluRay.x264.DTS-FGT 7.04GB

[复制链接]
电影首发 发表于 2015-11-5 08:40:00 | 显示全部楼层 |阅读模式

译  名 太阳的囚徒
片  名 Prisoners of the Sun
年  代 2013
国  家 美国
类  别 动作/冒险/恐怖/悬疑
语  言 英语
上映日期 2013
片  长 85分钟
导  演 罗杰·克里斯蒂安 Roger Christian
主  演 约翰·瑞斯-戴维斯 John Rhys-Davies
      David Charvet
      艾米莉·霍尔姆斯 Emily Holmes
      尼克·莫兰 Nick Moran
      乔斯·雅克兰德 Joss Ackland
      迈克尔·希格斯 Michael Higgs
      古山·格罗维 Gulshan Grover
      肖恩·里奇 Shane Richie
      Mohamed Akhzam
      Cedric Proust
      Ahmed Boulane
      Edy Arellano
      Katherine Heath
      Isabella Orlowska


简  介


  一位年轻的考古学家被卷入了一次危险的探险旅途。在这次旅途中他们将探寻埃及无垠的沙漠,在古代神兽的陷阱中死里逃生,并且探寻埋藏在古埃及深处的秘密。前方无尽的危险正在靠近,“沉睡者”即将被唤醒,上帝即将显灵……与此同时,世界末日的倒计时已经开始。


Video
ID                                       : 1
Format                                   : AVC
Format/Info                              : Advanced Video Codec
Format profile                           : [email protected]
Format settings, CABAC                   : Yes
Format settings, ReFrames                : 4 frames
Codec ID                                 : V_MPEG4/ISO/AVC
Duration                                 : 1h 27mn
Bit rate                                 : 10 000 Kbps
Width                                    : 1 920 pixels
Height                                   : 1 080 pixels
Display aspect ratio                     : 16:9
Frame rate mode                          : Constant
Frame rate                               : 24.000 fps
Color space                              : YUV
Chroma subsampling                       : 4:2:0
Bit depth                                : 8 bits
Scan type                                : Progressive
Bits/(Pixel*Frame)                       : 0.201
Stream size                              : 5.97 GiB (85%)
Writing library                          : x264 core 130 r2273 b3065e6
Encoding settings                        : cabac=1 / ref=3 / deblock=1:0:0 / analyse=0x3:0x113 / me=hex / subme=7 / psy=1 / psy_rd=1.00:0.00 / mixed_ref=1 / me_range=16 / chroma_me=1 / trellis=1 / 8x8dct=1 / cqm=0 / deadzone=21,11 / fast_pskip=1 / chroma_qp_offset=-2 / threads=12 / lookahead_threads=2 / sliced_threads=0 / nr=0 / decimate=1 / interlaced=0 / bluray_compat=0 / constrained_intra=0 / bframes=3 / b_pyramid=2 / b_adapt=1 / b_bias=0 / direct=1 / weightb=1 / open_gop=0 / weightp=2 / keyint=240 / keyint_min=24 / scenecut=40 / intra_refresh=0 / rc_lookahead=40 / rc=abr / mbtree=1 / bitrate=10000 / ratetol=1.0 / qcomp=0.60 / qpmin=0 / qpmax=69 / qpstep=4 / vbv_maxrate=25000 / vbv_bufsize=31250 / nal_hrd=none / ip_ratio=1.40 / aq=1:1.00
Language                                 : English
Default                                  : Yes
Forced                                   : No
Color range                              : Limited
Color primaries                          : BT.709
Transfer characteristics                 : BT.709
Matrix coefficients                      : BT.709

Audio
ID                                       : 2
Format                                   : DTS
Format/Info                              : Digital Theater Systems
Mode                                     : 16
Format settings, Endianness              : Big
Codec ID                                 : A_DTS
Duration                                 : 1h 27mn
Bit rate mode                            : Constant
Bit rate                                 : 1 509 Kbps
Channel(s)                               : 6 channels
Channel positions                        : Front: L C R, Side: L R, LFE
Sampling rate                            : 48.0 KHz
Bit depth                                : 16 bits
Compression mode                         : Lossy
Stream size                              : 948 MiB (13%)
Language                                 : English
Default                                  : Yes
Forced                                   : No

Menu
00:00:00.000                             : en:Chapter 1
00:08:45.125                             : en:Chapter 2
00:16:35.791                             : en:Chapter 3
00:25:20.375                             : en:Chapter 4
00:29:30.083                             : en:Chapter 5
00:34:14.375                             : en:Chapter 6
00:41:41.833                             : en:Chapter 7
00:51:20.625                             : en:Chapter 8
01:00:08.875                             : en:Chapter 9
01:05:34.000                             : en:Chapter 10
01:12:30.500                             : en:Chapter 11
01:23:17.666                             : en:Chapter 12





                                                                                                                                                                                                       

                                                                                                                       
                                                                                                                                                                                                                                                        Prisoners.of.the.Sun.2013.1080p.BluRay.x264.DTS-FGT.torrent (71 KB, 下载次数: 0)

回复

使用道具 举报

小黑屋|百度云资源论坛

本网站所有资源来自网络,如无意中侵犯了您的权益,请发邮件至 [email protected],立即清除相关链接

GMT+8, 2022-10-7 12:49 , Processed in 0.086411 second(s), 26 queries .

Powered by Discuz! X3.2

© 2001-2013 Comsenz Inc.

快速回复 返回顶部 返回列表