百度云资源论坛

 找回密码
 立即注册
搜索

[剧情片] 性爱巴士/短巴士 Shortbus.2006.1080p.BluRay.x264.DTS-FGT 8.71GB

[复制链接]
电影首发 发表于 2015-11-5 08:40:00 | 显示全部楼层 |阅读模式

译  名 性爱巴士/短巴士
片  名 Shortbus
年  代 2006
国  家 美国
类  别 剧情/爱情/情色
语  言 英语
上映日期 2006-05-20(戛纳电影节)
片  长 101 分钟
导  演 约翰·卡梅隆·米切尔 John Cameron Mitchell
主  演 李素英 Sook-Yin Lee
      保罗·道森 Paul Dawson
      林赛·比米什 Lindsay Beamish
      PJ DeBoy
      拉斐尔·巴克 Raphael Barker
      杰·布拉南 Jay Brannan


简  介


  在繁华之都纽约,有一间名为短巴士(Short Bus)的俱乐部,肆意享受人生的青年男女云集于此,体验着彼此身体所带给自己的莫大快感。索非娅(Sook-Yin Lee 饰)是一名亚裔性临床专家,虽然和丈夫罗伯(Raphael Barker 饰)的婚姻生活无比幸福,但是她从未达到过高潮,为此索非娅苦恼不已;詹姆斯(Paul Dawson 饰)与杰米(PJ DeBoy 饰)是一对同性恋人,平淡的生活让詹姆斯渴望新鲜和刺激,这时,偷窥他们的加勒伯(Peter Stickles 饰)介入进来……
  本片荣获2006年雅典国际电影节观众奖;2006年西班牙西洪(Gijón)国际电影节最佳艺术指导和最佳剧本奖;2007年独立精神奖最佳制片奖;2006年苏黎世电影节最佳影片奖。





Video
ID                                       : 1
Format                                   : AVC
Format/Info                              : Advanced Video Codec
Format profile                           : [email protected]
Format settings, CABAC                   : Yes
Format settings, ReFrames                : 4 frames
Codec ID                                 : V_MPEG4/ISO/AVC
Duration                                 : 1h 41mn
Bit rate                                 : 10.8 Mbps
Width                                    : 1 920 pixels
Height                                   : 1 080 pixels
Display aspect ratio                     : 16:9
Frame rate mode                          : Constant
Frame rate                               : 23.976 fps
Color space                              : YUV
Chroma subsampling                       : 4:2:0
Bit depth                                : 8 bits
Scan type                                : Progressive
Bits/(Pixel*Frame)                       : 0.217
Stream size                              : 7.47 GiB (86%)
Writing library                          : x264 core 116 r2074 2641b9e
Encoding settings                        : cabac=1 / ref=4 / deblock=1:-3:-3 / analyse=0x3:0x113 / me=umh / subme=10 / psy=1 / psy_rd=1.00:0.00 / mixed_ref=1 / me_range=32 / chroma_me=1 / trellis=2 / 8x8dct=1 / cqm=2 / deadzone=21,11 / fast_pskip=0 / chroma_qp_offset=-1 / threads=8 / sliced_threads=0 / nr=0 / decimate=1 / interlaced=0 / bluray_compat=0 / constrained_intra=0 / bframes=6 / b_pyramid=2 / b_adapt=2 / b_bias=0 / direct=3 / weightb=1 / open_gop=0 / weightp=2 / keyint=250 / keyint_min=23 / scenecut=40 / intra_refresh=0 / rc_lookahead=40 / rc=2pass / mbtree=0 / bitrate=10786 / ratetol=1.0 / qcomp=0.70 / qpmin=1 / qpmax=63 / qpstep=4 / cplxblur=20.0 / qblur=0.5 / vbv_maxrate=40000 / vbv_bufsize=40000 / nal_hrd=none / ip_ratio=1.40 / pb_ratio=1.30 / aq=2:0.80
Language                                 : English
Default                                  : Yes
Forced                                   : No

Audio
ID                                       : 2
Format                                   : DTS
Format/Info                              : Digital Theater Systems
Mode                                     : 16
Format settings, Endianness              : Big
Codec ID                                 : A_DTS
Duration                                 : 1h 41mn
Bit rate mode                            : Constant
Bit rate                                 : 1 509 Kbps
Channel(s)                               : 6 channels
Channel positions                        : Front: L C R, Side: L R, LFE
Sampling rate                            : 48.0 KHz
Bit depth                                : 24 bits
Compression mode                         : Lossy
Stream size                              : 1.07 GiB (12%)
Language                                 : English
Default                                  : Yes
Forced                                   : No

Text
ID                                       : 3
Format                                   : UTF-8
Codec ID                                 : S_TEXT/UTF8
Codec ID/Info                            : UTF-8 Plain Text
Language                                 : English
Default                                  : No
Forced                                   : No

Menu
00:00:00.000                             : en:00:00:00.000
00:07:07.135                             : en:00:07:07.135
00:15:53.369                             : en:00:15:53.369
00:23:16.895                             : en:00:23:16.895
00:29:27.474                             : en:00:29:27.474
00:33:50.528                             : en:00:33:50.528
00:39:57.103                             : en:00:39:57.103
00:45:15.713                             : en:00:45:15.713
00:51:09.191                             : en:00:51:09.191
00:57:17.350                             : en:00:57:17.350
01:03:47.156                             : en:01:03:47.156
01:08:28.729                             : en:01:08:28.729
01:14:30.382                             : en:01:14:30.382
01:20:17.687                             : en:01:20:17.687
01:26:14.878                             : en:01:26:14.878
01:35:24.176                             : en:01:35:24.176






                                                                                                                                                                                                       

                                                                                                                       
                                                                                                                                                                                                                                                        Shortbus.2006.1080p.BluRay.x264.DTS-FGT.torrent (87.66 KB, 下载次数: 0)

回复

使用道具 举报

小黑屋|百度云资源论坛

本网站所有资源来自网络,如无意中侵犯了您的权益,请发邮件至 [email protected],立即清除相关链接

GMT+8, 2022-10-1 23:39 , Processed in 0.080127 second(s), 26 queries .

Powered by Discuz! X3.2

© 2001-2013 Comsenz Inc.

快速回复 返回顶部 返回列表