百度云资源论坛

 找回密码
 立即注册
搜索

[剧情片] 熊的故事/子熊故事 The.Bear.1988.REMASTERED.1080p.BluRay.x264-FGT 8.82GB

[复制链接]
电影首发 发表于 2015-11-5 08:40:00 | 显示全部楼层 |阅读模式

译  名 熊的故事/子熊故事
片  名 L'ours
年  代 1988
国  家 法国/美国
类  别 剧情
语  言 英语
上映日期 1988-10-19(法国)
片  长 94分钟/85分钟(德国)
导  演 让-雅克·阿诺 Jean-Jacques Annaud
主  演 巴特熊 Bart the Bear
      Youk the Bear
      切基·卡尤 Tchéky Karyo
      Jack Wallace
      André Lacombe


简  介


  宁静的原始森林,熊妈妈正带着自己的孩子约克寻找蜂蜜。正当母子享受这顿美餐时,灾难不期而至。熊妈妈被一块巨石砸死,约克伤心备至,不得已踏上了独自生存的艰险之路。它路遇被猎人伤害的成年灰熊,灰熊一心报复伤害它的人类,对待约克分外冷淡。但随着一段时间的相处,它和约克慢慢成为了好朋友。它们一路遭到猎人的追踪,也遇到了各种各样的险情,在这个危机重重的原始丛林中寻找属于自己的一片天地……
  本片根据1885年发生在美国洛基山脉中人与熊之间的真实故事改编,并荣获1989年法国凯撒奖最佳导演奖、1990年Genesis奖最佳外语片奖、1990年年德国艺术院电影公会公会电影奖银奖最佳外语片、1988年法国电影学院奖。


获奖情况


  第62届奥斯卡金像奖 (1990)
  最佳剪辑(提名) Noëlle Boisson




Video
ID                                       : 1
Format                                   : AVC
Format/Info                              : Advanced Video Codec
Format profile                           : [email protected]
Format settings, CABAC                   : Yes
Format settings, ReFrames                : 5 frames
Codec ID                                 : V_MPEG4/ISO/AVC
Duration                                 : 1h 36mn
Bit rate                                 : 11.6 Mbps
Width                                    : 1 920 pixels
Height                                   : 816 pixels
Display aspect ratio                     : 2.35:1
Frame rate mode                          : Constant
Frame rate                               : 23.976 fps
Color space                              : YUV
Chroma subsampling                       : 4:2:0
Bit depth                                : 8 bits
Scan type                                : Progressive
Bits/(Pixel*Frame)                       : 0.308
Stream size                              : 7.63 GiB (86%)
Writing library                          : x264 core 148 r2638 7599210
Encoding settings                        : cabac=1 / ref=5 / deblock=1:0:0 / analyse=0x3:0x133 / me=umh / subme=10 / psy=1 / psy_rd=1.00:0.00 / mixed_ref=1 / me_range=24 / chroma_me=1 / trellis=2 / 8x8dct=1 / cqm=0 / deadzone=21,11 / fast_pskip=1 / chroma_qp_offset=-2 / threads=12 / lookahead_threads=2 / sliced_threads=0 / nr=0 / decimate=1 / interlaced=0 / bluray_compat=0 / constrained_intra=0 / bframes=8 / b_pyramid=2 / b_adapt=2 / b_bias=0 / direct=3 / weightb=1 / open_gop=0 / weightp=2 / keyint=250 / keyint_min=23 / scenecut=40 / intra_refresh=0 / rc_lookahead=60 / rc=2pass / mbtree=1 / bitrate=11553 / ratetol=1.0 / qcomp=0.60 / qpmin=0 / qpmax=69 / qpstep=4 / cplxblur=20.0 / qblur=0.5 / ip_ratio=1.40 / aq=1:1.00
Language                                 : English
Default                                  : Yes
Forced                                   : No

Audio
ID                                       : 2
Format                                   : DTS
Format/Info                              : Digital Theater Systems
Mode                                     : 16
Format settings, Endianness              : Big
Codec ID                                 : A_DTS
Duration                                 : 1h 36mn
Bit rate mode                            : Constant
Bit rate                                 : 1 509 Kbps
Channel(s)                               : 6 channels
Channel positions                        : Front: L C R, Side: L R, LFE
Sampling rate                            : 48.0 KHz
Bit depth                                : 24 bits
Compression mode                         : Lossy
Stream size                              : 1.02 GiB (12%)
Language                                 : English
Default                                  : Yes
Forced                                   : No

Menu
00:00:00.000                             : en:00:00:00.000
00:08:16.538                             : en:00:08:16.538
00:13:27.140                             : en:00:13:27.140
00:26:06.607                             : en:00:26:06.607
00:34:16.972                             : en:00:34:16.972
00:39:08.763                             : en:00:39:08.763
00:44:54.275                             : en:00:44:54.275
00:52:44.536                             : en:00:52:44.536
01:02:05.138                             : en:01:02:05.138
01:13:33.618                             : en:01:13:33.618
01:22:20.269                             : en:01:22:20.269
01:25:50.020                             : en:01:25:50.020
01:29:59.352                             : en:01:29:59.352
01:32:53.443                             : en:01:32:53.443





                                                                                                                                                                                                       

                                                                                                                       
                                                                                                                                                                                                                                                        The.Bear.1988.REMASTERED.1080p.BluRay.x264-FGT.torrent (88.8 KB, 下载次数: 0)

回复

使用道具 举报

小黑屋|百度云资源论坛

本网站所有资源来自网络,如无意中侵犯了您的权益,请发邮件至 [email protected],立即清除相关链接

GMT+8, 2022-10-2 00:02 , Processed in 0.088064 second(s), 26 queries .

Powered by Discuz! X3.2

© 2001-2013 Comsenz Inc.

快速回复 返回顶部 返回列表