百度云资源论坛

 找回密码
 立即注册
搜索

玩叛游戏/看客/桃色名单/激情陷 Deception.2008.720p.BluRay.x264-SEPTiC 4.38GB ... ...

[复制链接]
电影首发 发表于 2015-11-4 08:41:00 | 显示全部楼层 |阅读模式

译  名 玩叛游戏/看客/桃色名单/激情陷阱/旅行者/骗局
片  名 Deception
年  代 2008
国  家 美国
类  别 犯罪/剧情/悬疑/惊悚
语  言 英语
上映日期 2008-04-25
片  长 107 分钟
导  演 Marcel Langenegger
主  演 伊万·麦克格雷格 Ewan McGregor
      休·杰克曼 Hugh Jackman
      米歇尔·威廉姆斯 Michelle Williams
      李美琪 Maggie Q


简  介


  墨守成规的会计师乔纳森(伊万·麦克格雷格 Ewan McGregor 饰)意外结识风度翩翩的律师怀亚特(休·杰克曼 Hugh Jackman 饰),怀亚特的热情与幽默让这位极度压抑自我的会计师看到了这个世界金融中心繁华背后的奢靡。怀亚特与乔纳森无所不谈,他告之乔纳森存在一个神秘的性爱俱乐部,那里有无数希望和男人发生一夜情的美女,乔纳森对此表现出憧憬。怀亚特出差前与乔纳森拿错电话,乔纳森意外接到来自性爱俱乐部的电话邀请,考虑再三之后乔纳森最终走入了那片欲望之地,并且在一次约会中偶遇自己在地铁中曾经遭遇的心仪女子“S”。正当乔纳森完全沉浸在幸福之时,意外发生了。自己在旅馆房间被打晕,“S”遭遇绑架,怀亚特神秘失踪,一下子仿佛他这段曾经的经历只发生在自己的妄想之中……






http://www.imdb.com/title/tt0800240/

Rating : 5.8/10

Video :  1280x 528 @ 4294

Audio : DTS

Video
ID                                       : 1
Format                                   : AVC
Format/Info                              : Advanced Video Codec
Format profile                           : [email protected]
Format settings, CABAC                   : Yes
Format settings, ReFrames                : 5 frames
Codec ID                                 : V_MPEG4/ISO/AVC
Duration                                 : 1h 47mn
Bit rate                                 : 4 294 Kbps
Width                                    : 1 280 pixels
Height                                   : 528 pixels
Display aspect ratio                     : 2.40:1
Frame rate mode                          : Constant
Frame rate                               : 23.976 fps
Color space                              : YUV
Chroma subsampling                       : 4:2:0
Bit depth                                : 8 bits
Scan type                                : Progressive
Bits/(Pixel*Frame)                       : 0.265
Stream size                              : 3.15 GiB (72%)
Writing library                          : x264 core 61 r957 7ce0f2c
Encoding settings                        : cabac=1 / ref=5 / deblock=1:0:0 / analyse=0x3:0x133 / me=umh / subme=6 / brdo=1 / mixed_ref=1 / me_range=16 / chroma_me=1 / trellis=1 / 8x8dct=1 / cqm=0 / deadzone=21,11 / chroma_qp_offset=0 / threads=6 / nr=0 / decimate=1 / mbaff=0 / bframes=3 / b_pyramid=1 / b_adapt=1 / b_bias=0 / direct=1 / wpredb=1 / bime=1 / keyint=250 / keyint_min=25 / scenecut=40(pre) / rc=2pass / bitrate=4294 / ratetol=1.0 / qcomp=1.00 / qpmin=10 / qpmax=51 / qpstep=4 / cplxblur=20.0 / qblur=0.5 / ip_ratio=1.40 / pb_ratio=1.30 / aq=2:1.00
Language                                 : English
Default                                  : Yes
Forced                                   : No

Audio
ID                                       : 2
Format                                   : DTS
Format/Info                              : Digital Theater Systems
Mode                                     : 16
Format settings, Endianness              : Big
Codec ID                                 : A_DTS
Duration                                 : 1h 47mn
Bit rate mode                            : Constant
Bit rate                                 : 1 509 Kbps
Channel(s)                               : 6 channels
Channel positions                        : Front: L C R, Side: L R, LFE
Sampling rate                            : 48.0 KHz
Bit depth                                : 24 bits
Compression mode                         : Lossy
Stream size                              : 1.14 GiB (26%)
Language                                 : English
Default                                  : Yes
Forced                                   : No



                                                                                                                                                                                                       

                                                                                                                       
                                                                                                                                                                                                                                                        Deception.2008.720p.BluRay.x264-SEPTiC.torrent (175.65 KB, 下载次数: 0)

回复

使用道具 举报

小黑屋|百度云资源论坛

本网站所有资源来自网络,如无意中侵犯了您的权益,请发邮件至 [email protected],立即清除相关链接

GMT+8, 2024-6-23 17:00 , Processed in 0.085729 second(s), 26 queries .

Powered by Discuz! X3.2

© 2001-2013 Comsenz Inc.

快速回复 返回顶部 返回列表