百度云资源论坛

 找回密码
 立即注册
搜索

[剧情片] 生活似流水/换气/流入心海/吸入 Breathe.In.2013.1080p.BluRay.x264.DTS-FGT 8.15GB . ...

[复制链接]
电影首发 发表于 2015-11-4 08:34:00 | 显示全部楼层 |阅读模式

译  名 生活似流水/换气/流入心海/吸入
片  名 Breathe In
年  代 2013
国  家 美国
类  别 剧情
语  言 英语
上映日期 2013-01-19 (圣丹斯电影节)
片  长 98分钟
导  演 德雷克·多雷穆斯 Drake Doremus
主  演 盖·皮尔斯 Guy Pearce
      菲丽希缇·琼斯 Felicity Jones
      凯尔·麦克拉克伦 Kyle MacLachlan
      艾米·莱安 Amy Ryan
      亚利桑德拉·温特沃斯 Alexandra Wentworth
      麦肯兹·戴维斯 Mackenzie Davis


简  介


  盖皮尔斯此次饰演一位前摇滚音乐家转行的音乐老师。他遇到了一个年轻的外国交换生女孩,并因为与她之间的感情而让自己的生活获得了新生。




Video
ID                                       : 1
Format                                   : AVC
Format/Info                              : Advanced Video Codec
Format profile                           : [email protected]
Format settings, CABAC                   : Yes
Format settings, ReFrames                : 5 frames
Codec ID                                 : V_MPEG4/ISO/AVC
Duration                                 : 1h 37mn
Bit rate                                 : 10.5 Mbps
Width                                    : 1 920 pixels
Height                                   : 808 pixels
Display aspect ratio                     : 2.40:1
Frame rate mode                          : Constant
Frame rate                               : 23.976 fps
Color space                              : YUV
Chroma subsampling                       : 4:2:0
Bit depth                                : 8 bits
Scan type                                : Progressive
Bits/(Pixel*Frame)                       : 0.282
Stream size                              : 6.97 GiB (85%)
Writing library                          : x264 core 140 r2377 1ca7bb9
Encoding settings                        : cabac=1 / ref=5 / deblock=1:-2:-1 / analyse=0x3:0x113 / me=umh / subme=10 / psy=1 / psy_rd=1.02:0.20 / mixed_ref=1 / me_range=36 / chroma_me=1 / trellis=2 / 8x8dct=1 / cqm=0 / deadzone=21,11 / fast_pskip=0 / chroma_qp_offset=-4 / threads=3 / lookahead_threads=1 / sliced_threads=0 / nr=0 / decimate=1 / interlaced=0 / bluray_compat=0 / constrained_intra=0 / bframes=9 / b_pyramid=2 / b_adapt=2 / b_bias=0 / direct=3 / weightb=1 / open_gop=0 / weightp=2 / keyint=240 / keyint_min=23 / scenecut=40 / intra_refresh=0 / rc_lookahead=115 / rc=2pass / mbtree=1 / bitrate=10499 / ratetol=1.0 / qcomp=0.60 / qpmin=10 / qpmax=59 / qpstep=4 / cplxblur=20.0 / qblur=0.5 / vbv_maxrate=40000 / vbv_bufsize=30000 / nal_hrd=none / filler=0 / ip_ratio=1.40 / aq=1:0.90
Language                                 : English
Default                                  : Yes
Forced                                   : No
Color range                              : Limited
Matrix coefficients                      : BT.709

Audio
ID                                       : 2
Format                                   : DTS
Format/Info                              : Digital Theater Systems
Mode                                     : 16
Format settings, Endianness              : Big
Codec ID                                 : A_DTS
Duration                                 : 1h 37mn
Bit rate mode                            : Constant
Bit rate                                 : 1 509 Kbps
Channel(s)                               : 6 channels
Channel positions                        : Front: L C R, Side: L R, LFE
Sampling rate                            : 48.0 KHz
Bit depth                                : 16 bits
Compression mode                         : Lossy
Stream size                              : 1.02 GiB (13%)
Language                                 : English
Default                                  : Yes
Forced                                   : No

Menu
00:00:00.000                             : en:00:00:00.000
00:08:00.188                             : en:00:08:00.188
00:19:39.762                             : en:00:19:39.762
00:29:30.310                             : en:00:29:30.310
00:39:05.468                             : en:00:39:05.468
00:47:19.336                             : en:00:47:19.336
00:52:10.210                             : en:00:52:10.210
01:02:17.275                             : en:01:02:17.275
01:12:28.094                             : en:01:12:28.094
01:20:47.259                             : en:01:20:47.259
01:27:21.403                             : en:01:27:21.403
01:31:45.917                             : en:01:31:45.917






                                                                                                                                                                                                       

                                                                                                                       
                                                                                                                                                                                                                                                        Breathe.In.2013.1080p.BluRay.x264.DTS-FGT.torrent (82.12 KB, 下载次数: 0)

回复

使用道具 举报

小黑屋|百度云资源论坛

本网站所有资源来自网络,如无意中侵犯了您的权益,请发邮件至 [email protected],立即清除相关链接

GMT+8, 2022-9-30 13:32 , Processed in 0.073554 second(s), 26 queries .

Powered by Discuz! X3.2

© 2001-2013 Comsenz Inc.

快速回复 返回顶部 返回列表