百度云资源论坛

 找回密码
 立即注册
搜索

[剧情片] 十年 10.Years.2011.1080p.BluRay.x264.DD5.1-FGT 8.13GB

[复制链接]
电影首发 发表于 2015-11-4 08:34:00 | 显示全部楼层 |阅读模式

译  名 十年
片  名 10 Years
年  代 2011
国  家 美国
类  别 剧情
语  言 英语
上映日期 2012-09-14(美国)/2011-09(多伦多电影节)
导  演 Jamie Linden
主  演 查宁·塔图姆 Channing Tatum
      凯特·玛拉 Kate Mara
      贾斯汀·朗 Justin Long
      罗莎里奥·道森 Rosario Dawson
      朗·里维斯顿 Ron Livingston
      琳恩·柯林斯 Lynn Collins
      克里斯·帕拉特 Chris Pratt
      山姆·佩吉 Sam Page
      斯科特·波特 Scott Porter
      安东尼·麦凯 Anthony Mackie
      奥斯卡·伊撒克 Oscar Isaac
      布莱恩·格拉格提 Brian Geraghty


简  介


  高中好友自毕业各散东西后再次带着各自精彩又让人难以置信的故事聚首,George, Jonathan和Luke是最好的哥们,他们答应一定要保持联络,尽管他们相隔千里。3年后的夏天,George决定为挚友们举办一个归宁派对,另外二人也同意了。他们叫上了其他好友,如Luke, Jill, Nate, Brooke和Matthew等。




Video
ID                                       : 1
Format                                   : AVC
Format/Info                              : Advanced Video Codec
Format profile                           : [email protected]
Format settings, CABAC                   : Yes
Format settings, ReFrames                : 4 frames
Codec ID                                 : V_MPEG4/ISO/AVC
Duration                                 : 1h 40mn
Bit rate                                 : 10.9 Mbps
Width                                    : 1 920 pixels
Height                                   : 1 080 pixels
Display aspect ratio                     : 16:9
Frame rate mode                          : Constant
Frame rate                               : 23.976 fps
Color space                              : YUV
Chroma subsampling                       : 4:2:0
Bit depth                                : 8 bits
Scan type                                : Progressive
Bits/(Pixel*Frame)                       : 0.220
Stream size                              : 7.52 GiB (92%)
Writing library                          : x264 core 129 r2230+696+36 4446aa2 tMod+MixAQ [[email protected]:2:0 X86_64]
Encoding settings                        : cabac=1 / ref=4 / deblock=1:-3:-3 / analyse=0x3:0x113 / me=umh / subme=11 / psy=1 / fade_compensate=0.20 / psy_rd=1.10:0.15 / mixed_ref=1 / me_range=48 / chroma_me=1 / trellis=2 / 8x8dct=1 / cqm=0 / deadzone=21,11 / fast_pskip=0 / chroma_qp_offset=-2 / threads=12 / lookahead_threads=2 / sliced_threads=0 / nr=0 / decimate=0 / interlaced=0 / bluray_compat=0 / constrained_intra=0 / fgo=5 / bframes=8 / b_pyramid=2 / b_adapt=2 / b_bias=0 / direct=3 / weightb=1 / open_gop=0 / weightp=2 / keyint=360 / keyint_min=1 / scenecut=40 / intra_refresh=0 / rc_lookahead=240 / rc=2pass / mbtree=1 / bitrate=10927 / ratetol=1.0 / qcomp=0.70 / qpmin=0 / qpmax=69 / qpstep=4 / cplxblur=20.0 / qblur=0.5 / vbv_maxrate=40000 / vbv_bufsize=30000 / nal_hrd=none / ip_ratio=1.40 / aq=3 / aq-strength=0.90 / aq-sensitivity=10.00 / aq-ifactor=1.00 / aq-pfactor=1.00 / aq-bfactor=1.00 / aq2=0
Language                                 : English
Default                                  : Yes
Forced                                   : No

Audio
ID                                       : 2
Format                                   : AC-3
Format/Info                              : Audio Coding 3
Mode extension                           : CM (complete main)
Format settings, Endianness              : Big
Codec ID                                 : A_AC3
Duration                                 : 1h 40mn
Bit rate mode                            : Constant
Bit rate                                 : 640 Kbps
Channel(s)                               : 6 channels
Channel positions                        : Front: L C R, Side: L R, LFE
Sampling rate                            : 48.0 KHz
Compression mode                         : Lossy
Stream size                              : 461 MiB (6%)
Language                                 : English
Default                                  : Yes
Forced                                   : No

Menu
00:00:00.000                             : :Chapter 01
00:06:18.712                             : :Chapter 02
00:13:34.521                             : :Chapter 03
00:20:40.030                             : :Chapter 04
00:33:22.792                             : :Chapter 05
00:44:20.032                             : :Chapter 06
00:53:14.983                             : :Chapter 07
00:59:50.045                             : :Chapter 08
01:07:19.160                             : :Chapter 09
01:16:28.584                             : :Chapter 10
01:25:19.740                             : :Chapter 11
01:36:04.133                             : :Chapter 12





                                                                                                                                                                                                       

                                                                                                                       
                                                                                                                                                                                                                                                        10.Years.2011.1080p.BluRay.x264.DD5.1-FGT.torrent (81.93 KB, 下载次数: 0)

回复

使用道具 举报

小黑屋|百度云资源论坛

本网站所有资源来自网络,如无意中侵犯了您的权益,请发邮件至 [email protected],立即清除相关链接

GMT+8, 2022-10-4 12:19 , Processed in 0.076289 second(s), 26 queries .

Powered by Discuz! X3.2

© 2001-2013 Comsenz Inc.

快速回复 返回顶部 返回列表